<svg xmlns="http://www.w3.org/2000/svg">
<defs>
<font id="PTSansCaptionRegular" horiz-adv-x="594" >
  <font-face 
    font-family="PTSansCaptionRegular"
    font-weight="400"
    font-variant="small-caps"
    font-stretch="normal"
    units-per-em="1000"
    panose-1="2 11 6 3 2 2 3 2 2 4"
    ascent="750"
    descent="-250"
    x-height="525"
    cap-height="700"
    bbox="-343 -251 1208 999"
    underline-thickness="50"
    underline-position="-50"
    unicode-range="U+0020-FB02"
  />
<missing-glyph horiz-adv-x="750" 
d="M50 700h650v-700h-650v700zM570 620l-195 -217l-195 217l-50 -50l197 -220l-197 -220l50 -50l195 217l195 -217l50 50l-198 220l198 220zM129 27h8v12h4q6 0 11 2.5t5 9.5q0 8 -5.5 10t-11.5 2h-11v-36zM141 57q8 0 8 -5t-2.5 -5.5t-6.5 -0.5h-3v11h4zM189 63h-31v-6h12
v-30h7v30h12v6zM222 37q0 -4 -7 -4t-9 2l-3 -7q2 0 5 -1t8 -1q14 0 14 12q0 9 -9 10t-9 6q0 3 6 3q5 0 9 -2l2 7q-6 2 -11 2q-14 0 -14 -11q0 -5 3 -7t6 -3.5t6 -2.5t3 -3zM237 47q4 2 9 2t5 -4v-2q-1 0 -2 0.5t-3 0.5q-12 0 -12 -10q0 -8 8 -8q6 0 9 5l2 -4h6q-1 2 -1 7v11
q0 10 -10 10q-4 0 -7.5 -1t-5.5 -2zM245 32q-4 0 -4 4t5 4q2 0 3 -0.5t2 -0.5v-3q-2 -4 -6 -4zM292 27v16q0 12 -9 12q-7 0 -10 -5l-2 4h-5v-27h7v17q2 4 6 4q5 0 5 -6v-15h8zM297 28q4 -2 10 -2q11 0 11 9q0 5 -2.5 6t-5.5 3q-5 2 -5 3q0 2 3 2q4 0 8 -2l2 6q-4 2 -10 2
q-10 0 -10 -9q0 -5 3 -6.5l5 -2.5q5 0 5 -3q0 -2 -3 -2q-5 0 -9 2zM338 42q0 -21 20 -21t20 21q0 20 -20 20q-8 0 -14 -5.5t-6 -14.5zM344 42q0 15 14 15t14 -15t-14 -15t-14 15zM364 38q-2 -1 -4 -1q-4 0 -4 5q0 4 4 4h3l2 4q-4 2 -7 2q-9 0 -9 -10q0 -11 9 -11q5 0 7 2z
M399 27h8v12h4q6 0 11 2.5t5 9.5q0 8 -5.5 10t-11.5 2h-11v-36zM411 57q8 0 8 -5t-2.5 -5.5t-6.5 -0.5h-3v11h4zM432 47q4 2 9 2t5 -4v-2q-1 0 -2 0.5t-3 0.5q-13 0 -13 -10q0 -8 9 -8q6 0 9 5l2 -4h6q-1 2 -1 7v11q0 10 -10 10q-4 0 -7.5 -1t-5.5 -2zM440 32q-4 0 -4 4t5 4
q2 0 3 -0.5t2 -0.5v-3q-2 -4 -6 -4zM478 54q-1 1 -4 1q-4 0 -6 -5h-1l-1 4h-6v-27h8v17q0 4 6 4h1q1 0 1 -0.5t1 -0.5zM483 47q6 2 9 2q5 0 5 -4v-2q-1 0 -2 0.5t-3 0.5q-13 0 -13 -10q0 -8 9 -8q7 0 9 5h1l1 -4h6q-1 2 -1 7v11q0 10 -10 10q-4 0 -7 -1t-5 -2zM491 32

<glyph glyph-name="fi" unicode="fi" horiz-adv-x="643" 
d="M535 525v-525h-92v447h-235v-447h-92v447h-92v78h92v33q0 81 52.5 118t154.5 37q66 0 120 -12.5t88 -31.5l-28 -72q-32 17 -75.5 27.5t-90.5 10.5q-42 0 -67.5 -6t-39 -19.5t-18 -34t-4.5 -50.5h327z" />
    <glyph glyph-name="fl" unicode="fl" horiz-adv-x="673" 
d="M438 625q-27 5 -60 7.5t-59 2.5q-38 0 -60.5 -7t-34 -21t-15 -34.5t-3.5 -47.5h115v-78h-115v-447h-92v447h-90v78h90v33q0 82 47.5 118.5t157.5 36.5q19 0 47 -1.5t57.5 -4t57.5 -6t49 -6.5v-553q0 -42 15 -60t41 -18q14 0 31 1.5t37 7.5l11 -68q-21 -9 -52.5 -14
t-56.5 -5q-54 0 -86 27.5t-32 91.5v520z" />
    <glyph glyph-name=".notdef" horiz-adv-x="750" 
d="M50 700h650v-700h-650v700zM570 620l-195 -217l-195 217l-50 -50l197 -220l-197 -220l50 -50l195 217l195 -217l50 50l-198 220l198 220zM129 27h8v12h4q6 0 11 2.5t5 9.5q0 8 -5.5 10t-11.5 2h-11v-36zM141 57q8 0 8 -5t-2.5 -5.5t-6.5 -0.5h-3v11h4zM189 63h-31v-6h12
v-30h7v30h12v6zM222 37q0 -4 -7 -4t-9 2l-3 -7q2 0 5 -1t8 -1q14 0 14 12q0 9 -9 10t-9 6q0 3 6 3q5 0 9 -2l2 7q-6 2 -11 2q-14 0 -14 -11q0 -5 3 -7t6 -3.5t6 -2.5t3 -3zM237 47q4 2 9 2t5 -4v-2q-1 0 -2 0.5t-3 0.5q-12 0 -12 -10q0 -8 8 -8q6 0 9 5l2 -4h6q-1 2 -1 7v11
q0 10 -10 10q-4 0 -7.5 -1t-5.5 -2zM245 32q-4 0 -4 4t5 4q2 0 3 -0.5t2 -0.5v-3q-2 -4 -6 -4zM292 27v16q0 12 -9 12q-7 0 -10 -5l-2 4h-5v-27h7v17q2 4 6 4q5 0 5 -6v-15h8zM297 28q4 -2 10 -2q11 0 11 9q0 5 -2.5 6t-5.5 3q-5 2 -5 3q0 2 3 2q4 0 8 -2l2 6q-4 2 -10 2
q-10 0 -10 -9q0 -5 3 -6.5l5 -2.5q5 0 5 -3q0 -2 -3 -2q-5 0 -9 2zM338 42q0 -21 20 -21t20 21q0 20 -20 20q-8 0 -14 -5.5t-6 -14.5zM344 42q0 15 14 15t14 -15t-14 -15t-14 15zM364 38q-2 -1 -4 -1q-4 0 -4 5q0 4 4 4h3l2 4q-4 2 -7 2q-9 0 -9 -10q0 -11 9 -11q5 0 7 2z
M399 27h8v12h4q6 0 11 2.5t5 9.5q0 8 -5.5 10t-11.5 2h-11v-36zM411 57q8 0 8 -5t-2.5 -5.5t-6.5 -0.5h-3v11h4zM432 47q4 2 9 2t5 -4v-2q-1 0 -2 0.5t-3 0.5q-13 0 -13 -10q0 -8 9 -8q6 0 9 5l2 -4h6q-1 2 -1 7v11q0 10 -10 10q-4 0 -7.5 -1t-5.5 -2zM440 32q-4 0 -4 4t5 4
q2 0 3 -0.5t2 -0.5v-3q-2 -4 -6 -4zM478 54q-1 1 -4 1q-4 0 -6 -5h-1l-1 4h-6v-27h8v17q0 4 6 4h1q1 0 1 -0.5t1 -0.5zM483 47q6 2 9 2q5 0 5 -4v-2q-1 0 -2 0.5t-3 0.5q-13 0 -13 -10q0 -8 9 -8q7 0 9 5h1l1 -4h6q-1 2 -1 7v11q0 10 -10 10q-4 0 -7 -1t-5 -2zM491 32
q-4 0 -4 4t5 4q2 0 3 -0.5t2 -0.5v-3q-2 -4 -6 -4zM533 63h-31v-6h11v-30h8v30h12v6zM541 54h-8l12 -27q-1 -5 -5 -5l-1 1l-2 -6q2 -1 5 -1q5 0 10 13l10 25h-8l-5 -15v-5h-1l-1 5zM565 16h8v12q1 -2 5 -2q14 0 14 15q0 14 -11 14q-5 0 -9 -4h-1l-1 3h-5v-38zM579 49
q5 0 5 -8q0 -9 -7 -9q-2 0 -4 2v10q0 5 6 5zM618 34q-2 -2 -7 -2q-7 0 -8 6h19v6q0 6 -3.5 8.5t-8.5 2.5q-14 0 -14 -15q0 -14 14 -14q3 0 6 1t5 2zM610 49q6 0 5 -6h-11q0 6 6 6z" />
    <glyph glyph-name=".null" horiz-adv-x="0" 
 />
    <glyph glyph-name="nonmarkingreturn" horiz-adv-x="291" 
 />
    <glyph glyph-name="space" unicode=" " horiz-adv-x="291" 
 />
    <glyph glyph-name="exclam" unicode="!" horiz-adv-x="331" 
d="M134 700h98v-343l-20 -173h-58l-20 173v343zM115 51q0 29 18.5 46t48.5 17t48.5 -17t18.5 -46q0 -27 -18.5 -45t-48.5 -18t-48.5 18t-18.5 45z" />
    <glyph glyph-name="quotedbl" unicode="&#x22;" horiz-adv-x="375" 
d="M98 700h92l-35 -198h-57v198zM228 700h92l-35 -198h-57v198z" />
    <glyph glyph-name="numbersign" unicode="#" 
d="M305 221h-113l-42 -164h-81l42 164h-85l17 72h87l32 124h-81l17 72h83l40 154h81l-40 -154h113l40 154h81l-40 -154h83l-19 -72h-83l-32 -124h79l-19 -72h-79l-43 -164h-80zM211 293h113l32 124h-113z" />
    <glyph glyph-name="dollar" unicode="$" 
d="M263 -13q-61 2 -108 11.5t-75 23.5l31 84q23 -12 60.5 -22.5t91.5 -12.5v250q-33 14 -65.5 30.5t-58 40t-41 56t-15.5 78.5q0 78 45 125.5t135 58.5v90h79v-88q55 -2 91 -10t65 -21l-29 -82q-20 10 -51 18t-76 11v-229q34 -15 68 -32.5t61 -41.5t43.5 -56t16.5 -77
q0 -83 -48.5 -134.5t-140.5 -65.5v-92h-79v87zM320 73q51 6 82 32.5t31 76.5q0 22 -9 39t-24.5 30.5t-36 24.5t-43.5 21v-224zM285 628q-58 -5 -81 -31.5t-23 -63.5q0 -40 30 -64.5t74 -44.5v204z" />
    <glyph glyph-name="percent" unicode="%" horiz-adv-x="854" 
d="M74 542q0 44 13 76t36 53t54.5 31t68.5 10t68.5 -9.5t55 -29.5t36.5 -52.5t13 -78.5t-13 -78.5t-36.5 -52.5t-55 -29.5t-68.5 -9.5t-68.5 9.5t-54.5 29.5t-36 52.5t-13 78.5zM162 542q0 -54 21.5 -79.5t62.5 -25.5q40 0 62.5 23t22.5 82q0 60 -22 82.5t-63 22.5
q-40 0 -62 -22.5t-22 -82.5zM473 170q0 44 13 76t36 53t54.5 31t68.5 10t68.5 -9.5t55 -29.5t36.5 -52.5t13 -78.5t-13 -78.5t-36.5 -52.5t-55 -29.5t-68.5 -9.5t-68.5 9.5t-54.5 29.5t-36 52.5t-13 78.5zM561 170q0 -54 21.5 -79.5t62.5 -25.5q40 0 62.5 23t22.5 82
q0 60 -22 82.5t-63 22.5q-40 0 -62 -22.5t-22 -82.5zM704 713l58 -48l-572 -678l-57 49z" />
    <glyph glyph-name="ampersand" unicode="&#x26;" horiz-adv-x="891" 
d="M125 189q0 40 15 75.5t40.5 67t59 57.5t70.5 46q-26 35 -44.5 70.5t-18.5 76.5q0 24 9 47.5t28.5 42t50.5 30t75 11.5q46 0 77.5 -11t50.5 -28.5t27 -39.5t8 -44q0 -41 -34.5 -86t-111.5 -84q38 -58 89 -116t104 -108q12 12 24.5 30t23.5 39t21 42.5t17 41.5l72 -37
q-6 -17 -18 -40t-26.5 -46.5t-29.5 -45t-28 -36.5q22 -19 39.5 -32.5t33 -23.5t29.5 -18t29 -15l-56 -68q-28 14 -61.5 37t-68.5 55q-20 -18 -43.5 -34.5t-53 -29t-65.5 -20.5t-79 -8q-52 0 -98 13.5t-81 39.5t-55.5 63.5t-20.5 85.5zM563 136q-30 28 -60.5 61t-57.5 65.5
t-50.5 62.5t-40.5 53q-59 -40 -96.5 -83.5t-37.5 -101.5q0 -29 14 -52.5t37.5 -40t55 -25t66.5 -8.5q26 0 51.5 6t48 15.5t40.5 22t30 25.5zM342 580q0 -28 12.5 -55.5t33.5 -56.5q56 32 78.5 58t22.5 46q0 32 -16.5 50.5t-58.5 18.5q-38 0 -55 -16.5t-17 -44.5z" />
    <glyph glyph-name="quotesingle" unicode="'" horiz-adv-x="244" 
d="M98 700h92l-35 -198h-57v198z" />
    <glyph glyph-name="parenleft" unicode="(" horiz-adv-x="314" 
d="M249 -220q-51 48 -85.5 105.5t-56.5 118t-31.5 122t-9.5 117.5q0 55 9.5 116t31.5 122.5t57.5 120.5t87.5 110l58 -43q-43 -50 -72 -103.5t-46 -108t-24.5 -109t-7.5 -105.5q0 -48 8.5 -103t27 -110.5t47 -108.5t68.5 -96z" />
    <glyph glyph-name="parenright" unicode=")" horiz-adv-x="313" 
d="M65 712q50 -48 85 -105.5t56.5 -118t31 -122t9.5 -117.5q0 -55 -9.5 -116t-31.5 -122.5t-57.5 -120.5t-87.5 -110l-58 44q44 51 73 104.5t46 107.5t24 108t7 105q0 48 -8.5 103t-26.5 110t-46 107.5t-68 96.5z" />
    <glyph glyph-name="asterisk" unicode="*" horiz-adv-x="387" 
d="M144 724l28 -44l19 -59l21 58l27 45l54 -30l-29 -47l-50 -49l74 14h53v-63h-51l-69 14l50 -50l25 -41l-53 -31l-28 45l-25 63l-19 -60l-27 -45l-57 31l30 45l46 43l-63 -14h-55v63h55l68 -14l-50 47l-29 48z" />
    <glyph glyph-name="plus" unicode="+" horiz-adv-x="554" 
d="M43 379h191v190h86v-190h191v-84h-191v-191h-86v191h-191v84z" />
    <glyph glyph-name="comma" unicode="," horiz-adv-x="219" 
d="M53 47q0 26 19 42.5t46 16.5q35 0 57 -23.5t22 -65.5q0 -39 -11.5 -67.5t-29.5 -49t-39.5 -32.5t-42.5 -18l-28 46q38 13 57.5 41.5t18.5 57.5q-27 -8 -48 6t-21 46z" />
    <glyph glyph-name="hyphen" unicode="-" horiz-adv-x="394" 
d="M64 332h266v-86h-266v86z" />
    <glyph glyph-name="period" unicode="." horiz-adv-x="238" 
d="M52 51q0 29 18.5 46t48.5 17t48.5 -17t18.5 -46q0 -27 -18.5 -45t-48.5 -18t-48.5 18t-18.5 45z" />
    <glyph glyph-name="slash" unicode="/" horiz-adv-x="396" 
d="M360 712l74 -34l-399 -818l-73 36z" />
    <glyph glyph-name="zero" unicode="0" 
d="M44 350q0 175 64 269t189 94q132 0 193 -93t61 -270q0 -174 -65 -268.5t-190 -94.5q-66 0 -113.5 26t-78 73.5t-45.5 114.5t-15 149zM142 350q0 -61 9 -112.5t27.5 -89.5t48 -59.5t70.5 -21.5q81 0 118.5 70t37.5 213q0 61 -8 112.5t-26.5 89.5t-48.5 59.5t-73 21.5
q-81 0 -118 -71t-37 -212z" />
    <glyph glyph-name="one" unicode="1" 
d="M113 84h152v465l12 61l-44 -50l-119 -80l-42 59l241 173h44v-628h150v-84h-394v84z" />
    <glyph glyph-name="two" unicode="2" 
d="M489 536q0 -51 -21 -104.5t-54.5 -106.5t-75 -105t-83.5 -100l-54 -43v-4l72 11h233v-84h-441v36q24 23 57.5 56.5t70 74t72 85.5t63.5 91.5t45.5 91.5t17.5 85q0 47 -29 78t-89 31q-42 0 -81 -16t-67 -39l-41 67q41 33 93 52.5t115 19.5q93 0 145 -48.5t52 -128.5z" />
    <glyph glyph-name="three" unicode="3" 
d="M255 69q37 0 68 10t53 28t34.5 43t12.5 55q0 66 -44 98t-125 32h-81v38l153 208l52 44l-74 -9h-210v84h395v-39l-169 -227l-40 -29v-3l38 7q43 -1 79.5 -15t63.5 -39.5t42 -61t15 -79.5q0 -56 -21 -98t-57 -71t-84 -43.5t-103 -14.5q-49 0 -90 7.5t-71 20.5l25 82
q26 -12 60.5 -20t77.5 -8z" />
    <glyph glyph-name="four" unicode="4" 
d="M576 211h-128v-211h-92v211h-337v42l362 457h67v-421h128v-78zM356 492l9 80h-3l-37 -65l-148 -179l-53 -47l75 8h157v203z" />
    <glyph glyph-name="five" unicode="5" 
d="M106 90q25 -9 53.5 -14t72.5 -5q75 0 123 36.5t48 107.5q0 69 -48.5 103.5t-134.5 34.5l-91 -4v351h347v-88h-259v-181l47 2q54 0 97 -15t73.5 -42t47 -66.5t16.5 -89.5q0 -57 -21 -100.5t-57.5 -73t-85.5 -44.5t-105 -15q-48 0 -83.5 6t-65.5 17l26 80v0z" />
    <glyph glyph-name="six" unicode="6" 
d="M540 212q0 -44 -16 -84.5t-46 -72t-74 -50t-100 -18.5q-54 0 -98.5 17t-76.5 49t-49.5 79t-17.5 107q0 96 28 178.5t77.5 145.5t117 102t147.5 48l19 -76q-60 -8 -109.5 -35.5t-87 -67t-61.5 -88t-32 -98.5q9 13 23.5 26t34.5 23t45 16t54 6q51 0 92.5 -14.5t70 -41.5
t44 -65t15.5 -86zM445 205q0 66 -36.5 100t-109.5 34q-53 0 -90.5 -23t-52.5 -52q-2 -13 -2 -20.5v-17.5q0 -29 9 -57.5t28 -51t47.5 -36.5t66.5 -14q31 0 56.5 11t44 30t29 44t10.5 53z" />
    <glyph glyph-name="seven" unicode="7" 
d="M115 0l270 573l48 49l-65 -10h-306v88h464v-29l-315 -671h-96z" />
    <glyph glyph-name="eight" unicode="8" 
d="M217 360q-27 15 -50.5 31.5t-41 37.5t-27.5 47t-10 59q0 38 15 70.5t43 56.5t68 37.5t90 13.5q46 0 83.5 -12t64 -34t41 -51.5t14.5 -64.5q0 -57 -28 -100t-93 -83q29 -16 54.5 -33.5t44 -39.5t29 -49t10.5 -61q0 -43 -15.5 -79t-45.5 -62.5t-73.5 -41.5t-98.5 -15
q-53 0 -93.5 14.5t-69 39t-43 58t-14.5 71.5q0 63 36 108t110 82zM279 329q-64 -32 -91 -71.5t-27 -74.5q0 -23 9 -44t26 -37t42 -25.5t58 -9.5q27 0 52 7.5t43.5 21.5t29.5 35.5t11 49.5q0 27 -13 48.5t-34.5 39t-49 32t-56.5 28.5zM324 395q46 33 69 66t23 71
q0 24 -9.5 42.5t-25 31.5t-36.5 20t-44 7q-29 0 -51 -8.5t-37.5 -22t-23.5 -30.5t-8 -35q0 -27 12 -48t31.5 -37.5t45.5 -30t54 -26.5z" />
    <glyph glyph-name="nine" unicode="9" 
d="M53 487q0 47 15.5 88.5t45.5 72t75 48t104 17.5q56 0 100.5 -18t75.5 -51t47.5 -80t16.5 -106q0 -113 -28.5 -198t-79 -143.5t-118 -90.5t-145.5 -39l-20 75q63 7 113 30.5t86 60t59 83t32 100.5q-15 -16 -30.5 -27t-34 -17.5t-41 -9t-51.5 -2.5q-44 0 -84.5 14t-71 40
t-48.5 64.5t-18 88.5zM149 494q0 -67 41 -101.5t106 -34.5q53 0 89.5 17t53.5 41q2 12 2 21v20q0 33 -9 65t-27.5 57t-47.5 40.5t-69 15.5q-66 0 -102.5 -37.5t-36.5 -103.5z" />
    <glyph glyph-name="colon" unicode=":" horiz-adv-x="273" 
d="M99 445q0 29 18.5 46t48.5 17t48.5 -17t18.5 -46q0 -27 -18.5 -45t-48.5 -18t-48.5 18t-18.5 45zM99 51q0 29 18.5 46t48.5 17t48.5 -17t18.5 -46q0 -27 -18.5 -45t-48.5 -18t-48.5 18t-18.5 45z" />
    <glyph glyph-name="semicolon" unicode=";" horiz-adv-x="277" 
d="M93 47q0 26 19 42.5t46 16.5q35 0 57 -23.5t22 -65.5q0 -39 -11.5 -67.5t-29.5 -49t-39.5 -32.5t-42.5 -18l-28 46q38 13 57.5 41.5t18.5 57.5q-27 -8 -48 6t-21 46zM98 445q0 29 18.5 46t48.5 17t48.5 -17t18.5 -46q0 -27 -18.5 -45t-48.5 -18t-48.5 18t-18.5 45z" />
    <glyph glyph-name="less" unicode="&#x3c;" horiz-adv-x="554" 
d="M44 300v38l419 236l42 -72l-256 -144l-100 -37l99 -32l262 -143l-41 -70z" />
    <glyph glyph-name="equal" unicode="=" horiz-adv-x="554" 
d="M43 465h468v-84h-468v84zM43 293h468v-84h-468v84z" />
    <glyph glyph-name="greater" unicode="&#x3e;" horiz-adv-x="554" 
d="M510 348v-38l-420 -235l-41 72l256 144l100 37l-99 32l-262 143l40 71z" />
    <glyph glyph-name="question" unicode="?" horiz-adv-x="479" 
d="M160 184q-4 50 7.5 86t31.5 64t44.5 50t46 44t36 47t14.5 58q0 44 -26.5 72t-92.5 28q-40 0 -81.5 -15t-70.5 -32l-32 72q42 26 89 40.5t116 14.5q49 0 86 -13t62 -35.5t37.5 -53t12.5 -65.5q0 -47 -15 -80.5t-37 -59.5t-48 -48t-48 -46.5t-37 -54.5t-15 -73h-80zM138 51
q0 29 18.5 46t48.5 17t48.5 -17t18.5 -46q0 -27 -18.5 -45t-48.5 -18t-48.5 18t-18.5 45z" />
    <glyph glyph-name="at" unicode="@" horiz-adv-x="1163" 
d="M770 490h42l-56 -282q-12 -63 -8 -93t40 -30t71.5 17t63 48.5t45 76t17.5 99.5q0 79 -29 139.5t-80 101.5t-121.5 62t-152.5 21q-89 0 -166 -31t-134 -85.5t-90 -129t-33 -162.5q0 -87 29 -157.5t83.5 -120t132 -76t173.5 -26.5q32 0 71.5 7.5t72.5 21.5l23 -75
q-48 -20 -90 -27t-92 -7q-104 0 -193 30.5t-155 88.5t-103.5 142.5t-37.5 192.5q0 112 41 203t111.5 155.5t163.5 100t198 35.5q98 0 182.5 -28.5t147 -81t98 -127t35.5 -167.5q0 -62 -24 -119.5t-65.5 -102t-96.5 -71t-117 -26.5q-28 0 -49.5 6.5t-35 22t-17.5 41.5t3 65
h-4q-16 -24 -37 -48t-46 -43.5t-54.5 -31.5t-62.5 -12q-26 0 -49 11t-40.5 31.5t-27.5 48.5t-10 62q0 60 22.5 120t61.5 108t90.5 78t108.5 30q40 0 65 -11.5t48 -27.5zM706 383q-18 19 -36 27t-46 8q-42 0 -77.5 -23t-61.5 -58.5t-41 -78t-15 -82.5q0 -36 16.5 -63.5
t61.5 -27.5q21 0 44 14t45.5 37t43 52t36.5 59z" />
    <glyph glyph-name="A" unicode="A" horiz-adv-x="645" 
d="M457 183h-277l-74 -183h-98l288 710h52l289 -710h-104zM210 267h218l-81 199l-27 107h-2l-27 -109z" />
    <glyph glyph-name="B" unicode="B" horiz-adv-x="641" 
d="M559 538q0 -26 -8.5 -51.5t-26 -48t-44.5 -39.5t-64 -25v-4q32 -4 62 -16t53 -33t37 -51t14 -71q0 -54 -25 -93.5t-66 -65t-92.5 -37.5t-103.5 -12q-18 0 -44 0.5t-54.5 2t-57 4t-50.5 7.5v689q41 7 96 11t118 4q43 0 88.5 -7.5t82.5 -26.5t61 -52t24 -85zM187 82
q7 -2 21 -3t30.5 -2t33 -1.5t30.5 -0.5q34 0 65.5 7t55.5 22t38.5 38t14.5 55q0 40 -17.5 63.5t-45.5 36t-63 16t-69 3.5h-94v-234zM242 394q19 0 44 1.5t42 3.5q25 7 47.5 17.5t39.5 25t27 34t10 44.5q0 34 -13.5 54.5t-35.5 31.5t-50 15t-57 4q-35 0 -64.5 -1.5
t-44.5 -3.5v-226h55z" />
    <glyph glyph-name="C" unicode="C" horiz-adv-x="624" 
d="M584 30q-33 -24 -84 -33.5t-108 -9.5q-67 0 -127.5 21.5t-106.5 66t-73 113t-27 162.5q0 98 30 167t78 112.5t108 63.5t119 20q66 0 108 -7t71 -18l-22 -86q-49 23 -149 23q-45 0 -87.5 -14.5t-76 -47t-53.5 -85t-20 -128.5q0 -68 19 -119.5t52.5 -86t79 -52t99.5 -17.5
q49 0 85 9t61 23z" />
    <glyph glyph-name="D" unicode="D" horiz-adv-x="715" 
d="M89 700q20 3 46.5 4.5t55 2.5t56 1.5t50.5 0.5q92 0 159.5 -26.5t112 -73.5t66.5 -112t22 -142q0 -70 -20.5 -135.5t-65.5 -116.5t-115.5 -82t-170.5 -31q-17 0 -45.5 1t-58.5 2t-55.5 2.5t-36.5 3.5v701zM300 621h-30t-32 -1t-29 -2t-20 -2v-534q5 -1 19.5 -1.5t30.5 -1
t30 -1t20 -0.5q75 0 125.5 23.5t81 62.5t43 88.5t12.5 102.5q0 45 -12 92t-41 85.5t-77 63.5t-121 25z" />
    <glyph glyph-name="E" unicode="E" horiz-adv-x="585" 
d="M89 700h423v-86h-323v-213h295v-86h-295v-229h328v-86h-428v700z" />
    <glyph glyph-name="F" unicode="F" horiz-adv-x="565" 
d="M89 700h423v-86h-323v-223h300v-86h-300v-305h-100v700z" />
    <glyph glyph-name="G" unicode="G" horiz-adv-x="668" 
d="M348 353h262v-309q-18 -14 -43 -24.5t-53.5 -17.5t-58.5 -11t-59 -4q-72 0 -133.5 21.5t-107 66.5t-71.5 113.5t-26 161.5q0 97 31.5 166t81.5 113t111.5 64t122.5 20q66 0 109.5 -7.5t72.5 -18.5l-24 -85q-52 23 -150 23q-45 0 -89.5 -14t-80 -46.5t-57.5 -85
t-22 -129.5q0 -71 18.5 -123t51.5 -86t78 -50t98 -16q33 0 63.5 6.5t53.5 18.5v177l-179 18v58z" />
    <glyph glyph-name="H" unicode="H" horiz-adv-x="733" 
d="M544 313h-355v-313h-100v700h100v-299h355v299h100v-700h-100v313z" />
    <glyph glyph-name="I" unicode="I" horiz-adv-x="398" 
d="M149 634h-80v66h260v-66h-80v-568h80v-66h-260v66h80v568z" />
    <glyph glyph-name="J" unicode="J" horiz-adv-x="325" 
d="M125 700h100v-540q0 -78 -40.5 -124t-119.5 -46q-10 0 -23.5 1t-27.5 3.5t-27 5.5t-22 7l19 83q28 -12 67 -12q45 0 59.5 29t14.5 80v513z" />
    <glyph glyph-name="K" unicode="K" horiz-adv-x="669" 
d="M238 318h-49v-318h-100v700h100v-322l46 14l252 308h114l-252 -300l-47 -34l55 -40l278 -326h-126z" />
    <glyph glyph-name="L" unicode="L" horiz-adv-x="566" 
d="M547 0h-458v700h100v-612h358v-88z" />
    <glyph glyph-name="M" unicode="M" horiz-adv-x="868" 
d="M679 451l11 112h-4l-43 -97l-195 -310h-30l-205 311l-41 95h-5l16 -110v-452h-94v700h75l237 -357l37 -76h2l35 78l225 355h79v-700h-100v451z" />
    <glyph glyph-name="N" unicode="N" horiz-adv-x="735" 
d="M235 445l-60 98h-4l12 -98v-445h-94v710h56l357 -454l57 -93h5l-12 93v444h94v-710h-56z" />
    <glyph glyph-name="O" unicode="O" horiz-adv-x="747" 
d="M58 350q0 86 21.5 153.5t62 114t99 71t132.5 24.5q79 0 138.5 -26.5t99 -74t59 -114.5t19.5 -148q0 -86 -21.5 -153.5t-62.5 -114t-99.5 -71t-132.5 -24.5q-80 0 -139 26.5t-98 74t-58.5 114.5t-19.5 148zM164 350q0 -57 12.5 -107t38 -88t65 -60t93.5 -22q97 0 153.5 67
t56.5 210q0 56 -12.5 106t-38 88t-65 60.5t-94.5 22.5q-96 0 -152.5 -68t-56.5 -209z" />
    <glyph glyph-name="P" unicode="P" horiz-adv-x="614" 
d="M89 693q42 9 91.5 12.5t97.5 3.5q51 0 103.5 -9t95.5 -33t70.5 -66.5t27.5 -109.5q0 -63 -25 -107.5t-66.5 -72.5t-95 -41t-110.5 -13q-6 0 -18.5 0.5t-26 1t-26 1.5t-18.5 2v-262h-100v693zM281 623q-27 0 -52.5 -1t-39.5 -5v-269q5 -2 16.5 -2.5t24 -1.5t24 -1h17.5
q36 0 71 5.5t63.5 21.5t46 45t17.5 75q0 40 -17 66t-44 41t-60.5 20.5t-66.5 5.5z" />
    <glyph glyph-name="Q" unicode="Q" horiz-adv-x="747" 
d="M771 -181q-26 -7 -52 -9.5t-52 -2.5q-55 0 -107.5 10.5t-101 23t-93.5 23t-85 10.5q-25 0 -49 -6v86q30 6 60 6q45 0 90.5 -10.5t92 -22.5t96 -22.5t103.5 -10.5q23 0 47.5 2.5t50.5 8.5v-86zM58 350q0 86 21.5 153.5t62 114t99 71t132.5 24.5q79 0 138.5 -26.5t99 -74
t59 -114.5t19.5 -148q0 -86 -21.5 -153.5t-62.5 -114t-99.5 -71t-132.5 -24.5q-80 0 -139 26.5t-98 74t-58.5 114.5t-19.5 148zM164 350q0 -57 12.5 -107t38 -88t65 -60t93.5 -22q97 0 153.5 67t56.5 210q0 56 -12.5 106t-38 88t-65 60.5t-94.5 22.5q-96 0 -152.5 -68
t-56.5 -209z" />
    <glyph glyph-name="R" unicode="R" horiz-adv-x="653" 
d="M89 693q21 4 46.5 7t51.5 5t52 3t49 1q50 0 96.5 -10t82 -33t57 -60t21.5 -91q0 -42 -13 -76t-36 -60t-54.5 -43.5t-68.5 -26.5l52 -35l188 -274h-115l-208 295l-101 14v-309h-100v693zM291 623h-28.5t-28.5 -1t-26 -2t-19 -3v-242h82q36 0 66.5 7.5t53 23t35.5 40.5
t13 61q0 54 -38 85t-110 31z" />
    <glyph glyph-name="S" unicode="S" horiz-adv-x="581" 
d="M433 184q0 41 -27 65t-68 41.5t-88 33t-88 39.5t-68 62t-27 99q0 85 62.5 137t178.5 52q67 0 123 -10t88 -26l-31 -84q-25 13 -75 23.5t-110 10.5q-68 0 -102 -29t-34 -67q0 -39 27 -63t68 -42.5t88 -35.5t88 -42t68 -61.5t27 -93.5q0 -47 -18 -85t-52 -65t-82 -41.5
t-109 -14.5q-82 0 -138.5 12.5t-85.5 26.5l33 87q25 -13 75.5 -26.5t111.5 -13.5q35 0 65 6.5t52.5 20t35 34.5t12.5 50z" />
    <glyph glyph-name="T" unicode="T" horiz-adv-x="610" 
d="M591 612h-236v-612h-100v612h-236v88h572v-88z" />
    <glyph glyph-name="U" unicode="U" horiz-adv-x="710" 
d="M527 700h94v-457q0 -65 -18.5 -112t-52.5 -78.5t-80.5 -46.5t-103.5 -15q-135 0 -206 58.5t-71 173.5v477h100v-439q0 -102 44.5 -142t131.5 -40q84 0 123 44t39 141v436z" />
    <glyph glyph-name="V" unicode="V" horiz-adv-x="628" 
d="M296 234l26 -109h2l27 111l180 464h100l-290 -710h-50l-294 710h110z" />
    <glyph glyph-name="W" unicode="W" horiz-adv-x="913" 
d="M247 246l16 -117h2l18 119l155 452h50l156 -454l18 -117h2l19 119l124 452h98l-213 -710h-57l-153 455l-21 106h-5l-20 -107l-153 -454h-58l-217 710h105z" />
    <glyph glyph-name="X" unicode="X" horiz-adv-x="678" 
d="M280 356l-231 344h119l151 -230l27 -58l26 58l158 230h110l-238 -337l249 -363h-117l-167 244l-31 61l-28 -61l-171 -244h-110z" />
    <glyph glyph-name="Y" unicode="Y" horiz-adv-x="617" 
d="M261 274l-254 426h117l175 -297l17 -64h2l19 66l167 295h106l-249 -425v-275h-100v274z" />
    <glyph glyph-name="Z" unicode="Z" horiz-adv-x="596" 
d="M39 88l377 484l49 40h-426v88h518v-88l-380 -487l-47 -37h427v-88h-518v88z" />
    <glyph glyph-name="bracketleft" unicode="[" horiz-adv-x="336" 
d="M89 700h206v-80h-114v-770h114v-80h-206v930z" />
    <glyph glyph-name="backslash" unicode="\" horiz-adv-x="421" 
d="M442 -103l-76 -37l-402 816l76 36z" />
    <glyph glyph-name="bracketright" unicode="]" horiz-adv-x="336" 
d="M247 -230h-206v80h114v770h-114v80h206v-930z" />
    <glyph glyph-name="asciicircum" unicode="^" horiz-adv-x="554" 
d="M266 710h38l188 -280h-98l-85 132l-26 69l-32 -70l-100 -131h-90z" />
    <glyph glyph-name="underscore" unicode="_" horiz-adv-x="452" 
d="M0 -131h452v-78h-452v78z" />
    <glyph glyph-name="grave" unicode="`" horiz-adv-x="301" 
d="M241 570h-54l-127 127v23h110z" />
    <glyph glyph-name="a" unicode="a" horiz-adv-x="582" 
d="M82 492q90 43 223 43q60 0 96.5 -15.5t56.5 -39.5t26.5 -53.5t6.5 -58.5q0 -55 -4 -110.5t-4 -120.5q0 -38 3.5 -73.5t11.5 -65.5h-67l-25 80h-10q-11 -15 -27 -30.5t-38 -27.5t-50.5 -20t-65.5 -8t-68 10.5t-53.5 29.5t-35.5 46.5t-13 61.5q0 45 19.5 78t50.5 54
t70.5 31t78.5 10q31 0 52.5 -1t36 -2.5t24.5 -3t18 -2.5q2 15 3 26t1 28q0 28 -6 47t-19.5 30.5t-36.5 16.5t-56 5q-19 0 -42 -3t-46 -8.5t-45.5 -13.5t-40.5 -17zM395 238q-8 1 -17 3t-22.5 3t-32 2t-45.5 1q-62 0 -98.5 -22t-36.5 -75q0 -40 28.5 -60t73.5 -20
q33 0 58.5 8.5t44 21t30 28t17.5 30.5v80z" />
    <glyph glyph-name="b" unicode="b" horiz-adv-x="629" 
d="M88 700h92v-240h10q23 40 66 59.5t91 19.5q109 0 165.5 -66.5t56.5 -200.5q0 -137 -74 -209t-208 -72q-66 0 -119.5 11t-79.5 26v672zM334 461q-32 0 -56.5 -10t-43.5 -27.5t-32.5 -40t-21.5 -46.5v-249q49 -19 119 -19q79 0 125.5 48.5t46.5 155.5q0 40 -8 74.5
t-25 59.5t-42.5 39.5t-61.5 14.5z" />
    <glyph glyph-name="c" unicode="c" horiz-adv-x="529" 
d="M484 36q-35 -25 -82 -37.5t-99 -12.5q-66 0 -112.5 20t-75.5 56t-42 87t-13 113q0 133 64.5 205.5t185.5 72.5q53 0 92 -9.5t70 -23.5l-24 -75q-27 14 -58.5 22t-68.5 8q-163 0 -163 -200q0 -38 9 -73.5t29 -63t52.5 -44.5t79.5 -17q42 0 73.5 11.5t52.5 27.5z" />
    <glyph glyph-name="d" unicode="d" horiz-adv-x="629" 
d="M538 181q0 -51 1.5 -95.5t9.5 -87.5h-61l-23 80h-10q-23 -40 -67.5 -66t-103.5 -26q-113 0 -168.5 67t-55.5 206q0 134 68.5 205.5t192.5 71.5q21 0 37.5 -1.5t31 -3.5t28 -6t28.5 -8v183h92v-519zM446 428q-23 17 -49.5 23.5t-70.5 6.5q-81 0 -125.5 -47t-44.5 -153
q0 -42 8 -77.5t25 -61.5t45 -40.5t69 -14.5q61 0 95 30.5t48 90.5v243z" />
    <glyph glyph-name="e" unicode="e" horiz-adv-x="598" 
d="M515 43q-35 -26 -87 -41.5t-113 -15.5q-66 0 -114.5 19.5t-79.5 55.5t-46 87t-15 114q0 135 66.5 206.5t189.5 71.5q39 0 78 -8.5t70 -32t50.5 -64.5t19.5 -107q0 -16 -1 -37t-4 -41h-375q2 -92 44 -139t143 -47q42 0 80 14.5t59 34.5zM446 316q2 80 -32.5 113t-96.5 33
q-70 0 -111 -33t-48 -113h288z" />
    <glyph glyph-name="f" unicode="f" horiz-adv-x="364" 
d="M24 525h89v14q0 49 9 82.5t28.5 54t51 29.5t76.5 9q38 0 66.5 -4.5t59.5 -15.5l-20 -75q-26 11 -48.5 14t-43.5 3q-28 0 -45 -5t-26.5 -17.5t-12.5 -34t-3 -54.5h154v-78h-154v-447h-92v447h-89v78z" />
    <glyph glyph-name="g" unicode="g" horiz-adv-x="627" 
d="M537 -3q0 -103 -60.5 -153.5t-177.5 -50.5q-68 0 -110 8t-72 22l22 83q13 -6 30 -12.5t36 -11.5t38.5 -8t37.5 -3q49 0 81 8.5t51 26.5t26 46t7 67v37h-11q-16 -26 -56 -42t-97 -16q-114 0 -168 61.5t-54 198.5q0 135 70 208t208 73q66 0 113.5 -8t85.5 -21v-513zM302 76
q61 0 95.5 31t47.5 81v258q-23 7 -53 11t-68 4q-78 0 -122 -49.5t-44 -151.5q0 -88 32.5 -136t111.5 -48z" />
    <glyph glyph-name="h" unicode="h" horiz-adv-x="641" 
d="M461 0v290q0 43 -5.5 74.5t-20 52.5t-39 31t-61.5 10q-26 0 -51 -9t-46 -25t-36 -38.5t-22 -50.5v-335h-92v700h92v-240h11q30 36 72 58t104 22q48 0 83 -10.5t58 -37t34 -71t11 -111.5v-310h-92z" />
    <glyph glyph-name="i" unicode="i" horiz-adv-x="317" 
d="M114 525h92v-525h-92v525zM95 650q0 23 18 41.5t47 18.5t48 -18.5t19 -41.5t-19 -40.5t-48 -17.5t-47 17.5t-18 40.5z" />
    <glyph glyph-name="j" unicode="j" horiz-adv-x="312" 
d="M112 525h92v-543q0 -97 -36.5 -144.5t-117.5 -47.5h-17.5t-20.5 2v76q33 -1 52.5 8t30 27.5t14 46t3.5 65.5v510zM91 650q0 23 18 41.5t47 18.5t48 -18.5t19 -41.5t-19 -40.5t-48 -17.5t-47 17.5t-18 40.5z" />
    <glyph glyph-name="k" unicode="k" horiz-adv-x="557" 
d="M237 236h-57v-236h-92v700h92v-414l52 17l174 222h108l-167 -203h1l-55 -40l63 -45l185 -237h-116z" />
    <glyph glyph-name="l" unicode="l" horiz-adv-x="336" 
d="M192 139q0 -41 15.5 -58t41.5 -17q16 0 31 2t36 8l12 -68q-10 -4 -24 -7.5t-29 -6.5t-30 -4.5t-27 -1.5q-54 0 -86 27.5t-32 91.5v595h92v-561z" />
    <glyph glyph-name="m" unicode="m" horiz-adv-x="948" 
d="M428 0v288q0 42 -4 74t-16 53.5t-33.5 32t-55.5 10.5q-53 0 -88.5 -29.5t-50.5 -75.5v-353h-92v525h63l18 -70h10q32 36 73.5 60.5t105.5 24.5q54 0 90.5 -23t55.5 -77q30 46 76 73t103 27q48 0 81.5 -11t54.5 -38t31 -73t10 -116v-302h-92v302q0 40 -4.5 69t-16.5 48.5
t-33.5 29t-56.5 9.5q-57 0 -90 -30t-47 -90v-338h-92z" />
    <glyph glyph-name="n" unicode="n" horiz-adv-x="641" 
d="M461 0v290q0 84 -27 126t-96 42q-61 0 -101.5 -31.5t-56.5 -80.5v-346h-92v525h64l18 -70h9q29 36 75.5 60.5t111.5 24.5q46 0 81 -10.5t58.5 -37t35.5 -71t12 -112.5v-309h-92z" />
    <glyph glyph-name="o" unicode="o" horiz-adv-x="631" 
d="M60 262q0 65 17 116.5t50 87.5t80.5 55t108.5 19q64 0 112 -21t80 -58.5t47.5 -88t15.5 -110.5q0 -64 -17.5 -115t-50 -87t-80 -55t-107.5 -19q-66 0 -114 21t-79.5 58t-47 87.5t-15.5 109.5zM158 262q0 -37 8.5 -72.5t27.5 -63.5t49 -45t74 -17q156 0 156 198
q0 39 -8.5 75t-27 63.5t-48.5 44.5t-72 17q-78 0 -118.5 -49.5t-40.5 -150.5z" />
    <glyph glyph-name="p" unicode="p" horiz-adv-x="630" 
d="M88 525h62l18 -67h9q27 39 70 60.5t97 21.5q114 0 170 -63.5t56 -202.5q0 -66 -18.5 -119.5t-53 -91t-84 -57.5t-110.5 -20q-20 0 -36.5 1.5t-30.5 5t-28 8t-29 10.5v-211h-92v725zM323 462q-60 0 -94 -30t-49 -92v-242q23 -16 50 -25t69 -9q81 0 127 53t46 158
q0 85 -34 136t-115 51z" />
    <glyph glyph-name="q" unicode="q" horiz-adv-x="625" 
d="M537 -200h-91l-1 257h-11q-23 -34 -58.5 -52.5t-92.5 -18.5q-223 0 -223 272q0 137 71.5 207.5t210.5 70.5q30 0 59 -3t55 -7.5t46.5 -10t34.5 -11.5v-704zM445 438q-46 20 -120 20q-81 0 -124 -49t-43 -149q0 -44 7.5 -80t25 -61.5t45 -40t67.5 -14.5q60 0 93.5 30
t48.5 90v254z" />
    <glyph glyph-name="r" unicode="r" horiz-adv-x="380" 
d="M362 438q-17 5 -33 9t-30 4q-53 0 -82.5 -27t-36.5 -68v-356h-92v525h64l18 -70h9q23 39 53.5 60.5t76.5 21.5q14 0 33 -2.5t38 -8.5z" />
    <glyph glyph-name="s" unicode="s" horiz-adv-x="499" 
d="M353 147q0 20 -9.5 33.5t-25.5 23t-37 16.5t-44 14q-29 8 -58.5 17.5t-53 26t-38.5 42.5t-15 66q0 78 46.5 116t130.5 38q63 0 106 -12t75 -26l-22 -78q-27 13 -64.5 25.5t-82.5 12.5q-49 0 -73 -16t-24 -58q0 -17 9 -28.5t24 -20t35 -15t42 -12.5q30 -8 60 -18.5t55 -28
t40.5 -44.5t15.5 -68q0 -74 -50 -120.5t-150 -46.5q-64 0 -111.5 13t-79.5 30l26 80q28 -15 72 -30t89 -15q49 0 80.5 17.5t31.5 65.5z" />
    <glyph glyph-name="t" unicode="t" horiz-adv-x="405" 
d="M24 525h89v106l92 24v-130h158v-78h-158v-268q0 -63 16 -89t55 -26q25 0 45.5 5.5t46.5 14.5l21 -65q-32 -14 -68.5 -23.5t-78.5 -9.5q-70 0 -99.5 38t-29.5 124v299h-89v78z" />
    <glyph glyph-name="u" unicode="u" horiz-adv-x="644" 
d="M180 525v-289q0 -42 5 -74t18 -53.5t35.5 -33t57.5 -11.5q60 0 98 34t58 84v343h92v-376q0 -38 3 -77.5t9 -71.5h-62l-24 87h-10q-26 -45 -72 -73t-115 -28q-46 0 -80.5 11t-58 37.5t-35 70.5t-11.5 110v310h92z" />
    <glyph glyph-name="v" unicode="v" horiz-adv-x="535" 
d="M242 223l35 -108l33 110l125 300h100l-245 -536h-40l-250 536h108z" />
    <glyph glyph-name="w" unicode="w" horiz-adv-x="840" 
d="M468 525l86 -199l43 -101l27 -101h7l23 104l98 297h88l-191 -536h-50l-147 339v-1l-26 97l-30 -98v1l-141 -338h-48l-199 536h101l111 -297l19 -105h9l28 107l121 295h71z" />
    <glyph glyph-name="x" unicode="x" horiz-adv-x="592" 
d="M233 269l-189 256h117l102 -134l35 -71l41 71l106 134h104l-191 -252q50 -67 102 -136t102 -137h-114l-115 149l-40 75l-41 -75l-116 -149h-106z" />
    <glyph glyph-name="y" unicode="y" horiz-adv-x="531" 
d="M251 193l31 -101h13l25 102l109 331h94l-172 -475q-19 -49 -38.5 -95t-43 -81.5t-52 -57t-65.5 -21.5q-40 0 -68 9l15 78q15 -5 30 -5q20 0 36.5 5t30.5 18t25.5 36.5t21.5 60.5l-235 528h109z" />
    <glyph glyph-name="z" unicode="z" horiz-adv-x="515" 
d="M48 79l259 316l70 52h-329v78h413v-79l-262 -319l-70 -49h332v-78h-413v79z" />
    <glyph glyph-name="braceleft" unicode="{" horiz-adv-x="383" 
d="M146 108q0 51 -22.5 70t-64.5 19v76q42 0 64.5 20.5t22.5 64.5v233q0 48 26 79t79 31h100v-80h-56q-57 0 -57 -62v-224q0 -44 -23.5 -66.5t-53.5 -27.5v-8q29 -4 53 -30t24 -68v-223q0 -31 13.5 -46.5t44.5 -15.5h55v-80h-100q-49 0 -77 28t-28 81v229z" />
    <glyph glyph-name="bar" unicode="|" horiz-adv-x="258" 
d="M89 700h80v-830h-80v830z" />
    <glyph glyph-name="braceright" unicode="}" horiz-adv-x="383" 
d="M263 363q0 -51 23 -70t65 -19v-76q-42 0 -65 -20.5t-23 -64.5v-233q0 -48 -26.5 -79t-80.5 -31h-97v80h55q57 0 57 62v224q0 44 23.5 66.5t52.5 27.5v8q-29 4 -52.5 30t-23.5 68v223q0 62 -58 62h-54v80h98q49 0 77.5 -28t28.5 -81v-229z" />
    <glyph glyph-name="asciitilde" unicode="~" horiz-adv-x="554" 
d="M34 365q48 34 86 47t70 13q31 0 57 -8.5t50.5 -18.5t47.5 -18.5t48 -8.5q20 0 42 7.5t48 27.5l37 -71q-41 -26 -73 -36.5t-59 -10.5q-29 0 -53.5 8.5t-48 19t-46.5 19.5t-50 9q-25 0 -54 -11t-66 -38z" />
    <glyph glyph-name="uni00A0" unicode="&#xa0;" horiz-adv-x="291" 
 />
    <glyph glyph-name="exclamdown" unicode="&#xa1;" horiz-adv-x="329" 
d="M195 -200h-100v343l20 173h60l20 -173v-343zM76 463q0 29 18.5 46t48.5 17t48.5 -17t18.5 -46q0 -27 -18.5 -45t-48.5 -18t-48.5 18t-18.5 45z" />
    <glyph glyph-name="cent" unicode="&#xa2;" 
d="M517 34q-27 -16 -62 -27.5t-73 -16.5v-97h-79v95q-58 4 -99 26t-66.5 57.5t-37.5 83.5t-12 106q0 122 55 192.5t160 82.5v94h79v-93q38 -2 68.5 -9.5t56.5 -18.5l-27 -76q-24 12 -51.5 18t-54.5 8v-396q34 2 64 13t53 24zM314 457q-136 -18 -136 -196q0 -33 7 -65
t23.5 -58t42 -45.5t63.5 -26.5v391z" />
    <glyph glyph-name="sterling" unicode="&#xa3;" 
d="M44 385h72q-13 26 -22 55.5t-9 70.5q0 49 16.5 86.5t46.5 63t72.5 39t95.5 13.5q67 0 117.5 -11t82.5 -25l-30 -85q-23 12 -65.5 23.5t-103.5 11.5q-63 0 -97.5 -31.5t-34.5 -81.5q0 -39 12 -69.5t27 -59.5h171v-80h-133q6 -19 10 -40t4 -45q0 -30 -10.5 -61t-30.5 -52
l-40 -32v-5l64 14h277v-84h-492v84h2q34 1 59 12t41 28.5t23.5 40t7.5 46.5q0 28 -6 51t-14 43h-113v80z" />
    <glyph glyph-name="currency" unicode="&#xa4;" 
d="M94 602l78 -77l21 -35q21 16 47.5 23.5t56.5 7.5q61 0 103 -31l22 35l78 77l54 -56l-77 -78l-35 -21q31 -43 31 -102q0 -30 -7.5 -56t-23.5 -46l35 -20l77 -78l-54 -56l-78 77l-21 34q-20 -14 -47.5 -22.5t-56.5 -8.5q-61 0 -104 31l-21 -34l-78 -77l-54 56l77 78l34 20
q-30 44 -30 102q0 29 8 54.5t22 48.5l-34 20l-77 78zM199 345q0 -44 27 -73t71 -29q43 0 70.5 29t27.5 73q0 43 -27.5 72.5t-70.5 29.5q-44 0 -71 -29.5t-27 -72.5z" />
    <glyph glyph-name="yen" unicode="&#xa5;" 
d="M114 331h102l-220 369h117l175 -297l17 -64h2l19 66l167 295h106l-216 -369h103v-66h-136v-73h136v-66h-136v-126h-100v126h-136v66h136v73h-136v66z" />
    <glyph glyph-name="brokenbar" unicode="&#xa6;" horiz-adv-x="258" 
d="M89 208h80v-338h-80v338zM169 362h-80v338h80v-338z" />
    <glyph glyph-name="section" unicode="&#xa7;" horiz-adv-x="554" 
d="M64 353q0 31 16.5 60t43.5 52l44 14q-28 15 -45.5 40t-17.5 65q0 57 45 93t127 36q62 0 105 -10t73 -24l-24 -77q-24 11 -61.5 21t-78.5 10q-48 0 -70 -15t-22 -41q0 -24 21.5 -37t54 -23t70 -20t70 -27.5t54 -46.5t21.5 -76q0 -31 -16 -59t-43 -51l-50 -14
q30 -16 49 -41t19 -66q0 -32 -13 -56t-36.5 -40.5t-55 -24.5t-67.5 -8q-66 0 -107.5 12t-71.5 26l24 75q26 -11 61 -22t80 -11q43 0 67.5 12.5t24.5 43.5q0 25 -21.5 38.5t-54 23.5t-70 20t-70 27.5t-54 45.5t-21.5 75zM395 345q0 24 -14 39.5t-36.5 26t-51.5 18.5t-60 18
q-30 -13 -52 -36t-22 -56q0 -24 13 -39.5t35 -25.5t50.5 -18t58.5 -17q14 6 28 15t25.5 21t18.5 25.5t7 28.5z" />
    <glyph glyph-name="dieresis" unicode="&#xa8;" horiz-adv-x="449" 
d="M60 653q0 24 16 40t42 16q25 0 40.5 -16t15.5 -40q0 -23 -15.5 -39t-40.5 -16q-26 0 -42 16t-16 39zM275 653q0 24 15.5 40t41.5 16t41.5 -16t15.5 -40q0 -23 -15.5 -39t-41.5 -16t-41.5 16t-15.5 39z" />
    <glyph glyph-name="copyright" unicode="&#xa9;" horiz-adv-x="868" 
d="M53 288q0 89 30 160t81.5 120t121 75t148.5 26t148 -26t121 -75t82 -120t30 -160t-30 -160t-82 -120t-121 -75t-148 -26q-87 0 -157 26t-120 75t-77 120t-27 160zM135 288q0 -73 23 -129.5t63.5 -95t95 -58.5t117.5 -20t117.5 20t95 58.5t63.5 95t23 129.5t-23 129.5
t-63.5 95t-95 58.5t-117.5 20t-117.5 -20t-95 -58.5t-63.5 -95t-23 -129.5zM560 114q-24 -14 -56 -22t-73 -8q-87 0 -132.5 55t-45.5 149q0 98 48.5 151t129.5 53q20 0 35.5 -2t29.5 -6t27.5 -9.5t29.5 -12.5l-29 -69q-23 11 -43 16t-36 5q-42 0 -69.5 -27t-27.5 -99
q0 -59 26.5 -92.5t78.5 -33.5q26 0 46 5t37 14z" />
    <glyph glyph-name="ordfeminine" unicode="&#xaa;" horiz-adv-x="437" 
d="M78 675q27 14 73.5 23.5t102.5 9.5q70 0 96 -26.5t26 -77.5q0 -38 -1.5 -72.5t-1.5 -66.5q0 -23 1.5 -44.5t6.5 -40.5h-69l-14 48h-4q-7 -8 -17 -17.5t-23.5 -17t-31.5 -12.5t-42 -5q-56 0 -90 26t-34 70q0 31 16 52t44.5 34t66 19t81.5 6q8 0 15 -0.5t15 -0.5
q4 36 -7.5 50.5t-54.5 14.5q-45 0 -81.5 -8.5t-56.5 -18.5zM294 527q-12 1 -24 1.5t-24 0.5q-21 0 -40.5 -2t-34 -8t-23 -15.5t-8.5 -24.5q0 -19 15 -29.5t41 -10.5q23 0 40 5t28.5 13t18.5 17.5t11 18.5v34z" />
    <glyph glyph-name="guillemotleft" unicode="&#xab;" horiz-adv-x="524" 
d="M242 260l174 225l58 -51l-101 -134l-52 -40l52 -36l107 -132l-58 -50zM40 259l176 230l60 -52l-102 -136l-53 -41l53 -36l109 -133l-61 -53z" />
    <glyph glyph-name="logicalnot" unicode="&#xac;" horiz-adv-x="554" 
d="M45 398h467v-201h-86v117h-381v84z" />
    <glyph glyph-name="uni00AD" unicode="&#xad;" horiz-adv-x="394" 
d="M64 332h266v-86h-266v86z" />
    <glyph glyph-name="registered" unicode="&#xae;" horiz-adv-x="751" 
d="M86 432q0 70 23 124t62.5 90.5t92 55.5t111.5 19q61 0 113.5 -19t91.5 -55.5t61.5 -90.5t22.5 -124t-23 -123.5t-62.5 -90t-92 -55.5t-111.5 -19q-60 0 -113 19t-92 55.5t-61.5 90t-22.5 123.5zM160 432q0 -55 17.5 -96t46.5 -68t68 -40.5t83 -13.5q46 0 85.5 13t68 40
t45 68t16.5 97q0 55 -17 96t-46.5 68.5t-68.5 41t-83 13.5q-47 0 -86.5 -14t-68 -41.5t-44.5 -68.5t-16 -95zM265 572q17 5 48.5 8t58.5 3q22 0 42 -4.5t35 -14.5t24 -26t9 -39q0 -34 -22.5 -52.5t-54.5 -20.5l31 -15l77 -117h-66l-75 112l-52 16v-128h-55v278zM360 535
q-11 0 -22 -0.5t-18 -4.5v-76h37q32 0 49 10t17 33q0 18 -16.5 28t-46.5 10z" />
    <glyph glyph-name="macron" unicode="&#xaf;" horiz-adv-x="448" 
d="M60 666h328v-69h-328v69z" />
    <glyph glyph-name="degree" unicode="&#xb0;" horiz-adv-x="467" 
d="M90 566q0 32 13 59t34.5 46.5t50 30.5t60.5 11t61 -10t50.5 -29t34.5 -46.5t13 -61.5t-13 -61t-34.5 -46t-50.5 -29t-61 -10t-60.5 10t-50 29t-34.5 46t-13 61zM165 566q0 -36 25.5 -55.5t57.5 -19.5q16 0 31 5t27 14.5t19 23.5t7 32t-7 32t-19 24t-27 15t-31 5
q-32 0 -57.5 -20t-25.5 -56z" />
    <glyph glyph-name="plusminus" unicode="&#xb1;" horiz-adv-x="554" 
d="M43 512h191v187h86v-187h191v-84h-191v-125h-86v125h-191v84zM43 252h468v-84h-468v84z" />
    <glyph glyph-name="twosuperior" unicode="&#xb2;" horiz-adv-x="436" 
d="M355 685q0 -30 -10.5 -57t-29 -53t-43.5 -51.5t-53 -51.5l-50 -30v-2l63 13h144v-73h-321v42q25 18 62 48t71 65t58.5 71t24.5 67q0 30 -20.5 44.5t-52.5 14.5q-30 0 -57.5 -10.5t-47.5 -22.5l-27 66q30 20 68.5 31t78.5 11q69 0 105.5 -32.5t36.5 -89.5z" />
    <glyph glyph-name="threesuperior" unicode="&#xb3;" horiz-adv-x="436" 
d="M185 442q107 0 107 69q0 30 -24.5 48.5t-81.5 18.5h-57v26l101 107l38 26l-55 -6h-139v69h285v-40l-110 -115l-29 -18v-3l26 3q61 -1 95 -32.5t34 -85.5q0 -64 -50 -100t-131 -36q-40 0 -69.5 6.5t-52.5 14.5l18 68q19 -8 42.5 -14t52.5 -6z" />
    <glyph glyph-name="acute" unicode="&#xb4;" horiz-adv-x="288" 
d="M124 720h104v-23l-112 -127h-56z" />
    <glyph glyph-name="mu" unicode="&#xb5;" horiz-adv-x="636" 
d="M171 525v-286q0 -88 28.5 -132.5t100.5 -44.5q66 0 111 38.5t62 100.5v324h92v-356q0 -42 2.5 -85.5t12.5 -83.5h-60l-33 86h-12q-12 -19 -30 -37t-41 -31.5t-52 -22t-62 -8.5q-53 0 -82 15.5t-50 40.5h-14l27 -120v-124h-92v726h92z" />
    <glyph glyph-name="mu" unicode="&#x3bc;" horiz-adv-x="636" 
d="M171 525v-286q0 -88 28.5 -132.5t100.5 -44.5q66 0 111 38.5t62 100.5v324h92v-356q0 -42 2.5 -85.5t12.5 -83.5h-60l-33 86h-12q-12 -19 -30 -37t-41 -31.5t-52 -22t-62 -8.5q-53 0 -82 15.5t-50 40.5h-14l27 -120v-124h-92v726h92z" />
    <glyph glyph-name="paragraph" unicode="&#xb6;" horiz-adv-x="546" 
d="M376 700h80v-830h-80v830zM202 307q-35 0 -64.5 17t-51.5 45t-34 63.5t-12 71.5t13 71.5t37.5 63t59.5 44.5t79 17h53v-830h-80v437z" />
    <glyph glyph-name="periodcentered" unicode="&#xb7;" horiz-adv-x="290" 
d="M78 301q0 29 18.5 46t48.5 17t48.5 -17t18.5 -46q0 -27 -18.5 -45t-48.5 -18t-48.5 18t-18.5 45z" />
    <glyph glyph-name="cedilla" unicode="&#xb8;" horiz-adv-x="325" 
d="M165 -53q49 -8 72.5 -26t23.5 -51q0 -42 -35.5 -67.5t-90.5 -25.5q-23 0 -38.5 4t-29.5 7l10 53q53 -14 76 -5.5t23 25.5t-25.5 26.5t-73.5 14.5l54 90h61z" />
    <glyph glyph-name="onesuperior" unicode="&#xb9;" horiz-adv-x="436" 
d="M80 452h115v232l8 38l-30 -29l-83 -48l-32 59l168 103h53v-355h102v-72h-301v72z" />
    <glyph glyph-name="ordmasculine" unicode="&#xba;" horiz-adv-x="445" 
d="M50 542q0 44 13 76t36 53t54.5 31t68.5 10t68.5 -9.5t55 -29.5t36.5 -52.5t13 -78.5t-13 -78.5t-36.5 -52.5t-55 -29.5t-68.5 -9.5t-68.5 9.5t-54.5 29.5t-36 52.5t-13 78.5zM138 542q0 -54 21.5 -79.5t62.5 -25.5q40 0 62.5 23t22.5 82q0 60 -22 82.5t-63 22.5
q-40 0 -62 -22.5t-22 -82.5z" />
    <glyph glyph-name="guillemotright" unicode="&#xbb;" horiz-adv-x="523" 
d="M281 267l-173 -225l-58 51l100 134l52 40l-52 36l-106 131l57 51zM483 268l-175 -230l-61 53l103 135l52 41l-52 36l-109 133l60 53z" />
    <glyph glyph-name="onequarter" unicode="&#xbc;" horiz-adv-x="922" 
d="M685 714l60 -43l-524 -684l-60 45zM861 92h-90v-92h-78v92h-224v45l247 299h55v-277h90v-67zM693 279l7 48h-3l-24 -45l-80 -97l-37 -32l56 6h81v120zM177 583l8 39l-30 -28l-83 -49l-33 58l169 104h52v-427h-83v303z" />
    <glyph glyph-name="onehalf" unicode="&#xbd;" horiz-adv-x="935" 
d="M685 714l60 -43l-524 -684l-60 45zM853 305q0 -30 -10.5 -57t-29 -53t-43.5 -51.5t-53 -51.5l-50 -30v-2l63 13h144v-73h-321v42q25 18 62 48t71 65t58.5 71t24.5 67q0 30 -20.5 44.5t-52.5 14.5q-30 0 -57.5 -10.5t-47.5 -22.5l-27 66q30 20 68.5 31t78.5 11
q69 0 105.5 -32.5t36.5 -89.5zM177 583l8 39l-30 -28l-83 -49l-33 58l169 104h52v-427h-83v303z" />
    <glyph glyph-name="threequarters" unicode="&#xbe;" horiz-adv-x="962" 
d="M725 714l60 -43l-524 -684l-60 45zM901 92h-90v-92h-78v92h-224v45l247 299h55v-277h90v-67zM733 279l7 48h-3l-24 -45l-80 -97l-37 -32l56 6h81v120zM174 342q107 0 107 69q0 30 -24.5 48.5t-81.5 18.5h-57v26l101 107l38 26l-55 -6h-139v69h285v-40l-110 -115l-29 -18
v-3l26 3q61 -1 95 -32.5t34 -85.5q0 -64 -50 -100t-131 -36q-40 0 -69.5 6.5t-52.5 14.5l18 68q19 -8 42.5 -14t52.5 -6z" />
    <glyph glyph-name="questiondown" unicode="&#xbf;" horiz-adv-x="478" 
d="M318 317q4 -49 -7.5 -84t-31.5 -62.5t-44.5 -50t-46 -45t-36 -47.5t-14.5 -59q0 -45 26.5 -72t92.5 -27q19 0 40 4t40.5 11t37.5 15t33 17l34 -71q-42 -26 -89.5 -41t-117.5 -15q-48 0 -85 12.5t-62 34.5t-37.5 52t-12.5 66q0 47 15 81t37 60t48.5 48t48.5 46.5t37 54.5
t15 72h79zM206 463q0 29 18.5 46t48.5 17t48.5 -17t18.5 -46q0 -27 -18.5 -45t-48.5 -18t-48.5 18t-18.5 45z" />
    <glyph glyph-name="Agrave" unicode="&#xc0;" horiz-adv-x="645" 
d="M457 183h-277l-74 -183h-98l288 710h52l289 -710h-104zM210 267h218l-81 199l-27 107h-2l-27 -109zM379 752h-86l-173 95v23h132z" />
    <glyph glyph-name="Aacute" unicode="&#xc1;" horiz-adv-x="645" 
d="M457 183h-277l-74 -183h-98l288 710h52l289 -710h-104zM210 267h218l-81 199l-27 107h-2l-27 -109zM392 870h132v-23l-178 -95h-81z" />
    <glyph glyph-name="Acircumflex" unicode="&#xc2;" horiz-adv-x="645" 
d="M457 183h-277l-74 -183h-98l288 710h52l289 -710h-104zM210 267h218l-81 199l-27 107h-2l-27 -109zM289 870h73l139 -100v-25h-92l-65 47l-20 35l-21 -34l-70 -48h-90v26z" />
    <glyph glyph-name="Atilde" unicode="&#xc3;" horiz-adv-x="645" 
d="M457 183h-277l-74 -183h-98l288 710h52l289 -710h-104zM210 267h218l-81 199l-27 107h-2l-27 -109zM147 791q32 32 61 43.5t55 11.5q21 0 41.5 -5.5t39.5 -12t37 -12t36 -5.5q14 0 28.5 5t28.5 17l25 -51q-29 -24 -54.5 -33t-49.5 -9q-21 0 -41 5t-39 11.5t-37 11.5
t-36 5q-17 0 -35 -6.5t-36 -24.5z" />
    <glyph glyph-name="Adieresis" unicode="&#xc4;" horiz-adv-x="645" 
d="M457 183h-277l-74 -183h-98l288 710h52l289 -710h-104zM210 267h218l-81 199l-27 107h-2l-27 -109zM152 795q0 23 16.5 36t45.5 13q28 0 45 -13t17 -36q0 -22 -17 -35.5t-45 -13.5q-29 0 -45.5 13.5t-16.5 35.5zM366 795q0 23 16.5 36t44.5 13q29 0 46 -13t17 -36
q0 -22 -17 -35.5t-46 -13.5q-28 0 -44.5 13.5t-16.5 35.5z" />
    <glyph glyph-name="Aring" unicode="&#xc5;" horiz-adv-x="645" 
d="M205 769q0 37 27 61.5t91 24.5q58 0 88.5 -22t30.5 -64q0 -31 -15 -47t-29 -22q-17 -9 -41 -13l280 -687h-104l-76 183h-277l-74 -183h-98l279 687q-22 4 -43 13q-10 5 -24.5 21t-14.5 48zM210 267h218l-81 199l-27 107h-2l-27 -109zM275 769q0 -15 11 -26t37 -11
q49 0 49 37q0 18 -12 28.5t-37 10.5t-36.5 -10.5t-11.5 -28.5z" />
    <glyph glyph-name="AE" unicode="&#xc6;" horiz-adv-x="929" 
d="M429 591l-38 -106l-136 -212h178v318h-4zM433 189h-230l-120 -189h-108l456 700h425v-86h-323v-213h295v-86h-295v-229h328v-86h-428v189z" />
    <glyph glyph-name="Ccedilla" unicode="&#xc7;" horiz-adv-x="624" 
d="M584 30q-28 -20 -67.5 -29.5t-85.5 -12.5l-24 -41q49 -8 72.5 -26t23.5 -51q0 -42 -37 -67.5t-103 -25.5q-13 0 -26.5 1t-27.5 4l9 36q35 -2 55 1t30 10t12.5 15.5t2.5 16.5q0 17 -25.5 26.5t-73.5 14.5l51 86q-64 3 -120.5 26t-99 68t-67.5 111.5t-25 156.5q0 98 30 167
t78 112.5t108 63.5t119 20q66 0 108 -7t71 -18l-22 -86q-49 23 -149 23q-45 0 -87.5 -14.5t-76 -47t-53.5 -85t-20 -128.5q0 -68 19 -119t52.5 -85.5t79 -52t99.5 -17.5q49 0 85 8.5t61 22.5z" />
    <glyph glyph-name="Egrave" unicode="&#xc8;" horiz-adv-x="585" 
d="M89 700h423v-86h-323v-213h295v-86h-295v-229h328v-86h-428v700zM361 752h-86l-173 95v23h132z" />
    <glyph glyph-name="Eacute" unicode="&#xc9;" horiz-adv-x="585" 
d="M89 700h423v-86h-323v-213h295v-86h-295v-229h328v-86h-428v700zM356 870h132v-23l-178 -95h-81z" />
    <glyph glyph-name="Ecircumflex" unicode="&#xca;" horiz-adv-x="585" 
d="M89 700h423v-86h-323v-213h295v-86h-295v-229h328v-86h-428v700zM261 870h73l139 -100v-25h-92l-65 47l-20 35l-21 -34l-70 -48h-90v26z" />
    <glyph glyph-name="Edieresis" unicode="&#xcb;" horiz-adv-x="585" 
d="M89 700h423v-86h-323v-213h295v-86h-295v-229h328v-86h-428v700zM125 795q0 23 16.5 36t45.5 13q28 0 45 -13t17 -36q0 -22 -17 -35.5t-45 -13.5q-29 0 -45.5 13.5t-16.5 35.5zM339 795q0 23 16.5 36t44.5 13q29 0 46 -13t17 -36q0 -22 -17 -35.5t-46 -13.5
q-28 0 -44.5 13.5t-16.5 35.5z" />
    <glyph glyph-name="Igrave" unicode="&#xcc;" horiz-adv-x="398" 
d="M149 634h-80v66h260v-66h-80v-568h80v-66h-260v66h80v568zM286 752h-86l-173 95v23h132z" />
    <glyph glyph-name="Iacute" unicode="&#xcd;" horiz-adv-x="398" 
d="M149 634h-80v66h260v-66h-80v-568h80v-66h-260v66h80v568zM253 870h132v-23l-178 -95h-81z" />
    <glyph glyph-name="Icircumflex" unicode="&#xce;" horiz-adv-x="398" 
d="M149 634h-80v66h260v-66h-80v-568h80v-66h-260v66h80v568zM166 870h73l139 -100v-25h-92l-65 47l-20 35l-21 -34l-70 -48h-90v26z" />
    <glyph glyph-name="Idieresis" unicode="&#xcf;" horiz-adv-x="398" 
d="M149 634h-80v66h260v-66h-80v-568h80v-66h-260v66h80v568zM31 795q0 23 16.5 36t45.5 13q28 0 45 -13t17 -36q0 -22 -17 -35.5t-45 -13.5q-29 0 -45.5 13.5t-16.5 35.5zM245 795q0 23 16.5 36t44.5 13q29 0 46 -13t17 -36q0 -22 -17 -35.5t-46 -13.5q-28 0 -44.5 13.5
t-16.5 35.5z" />
    <glyph glyph-name="Eth" unicode="&#xd0;" horiz-adv-x="723" 
d="M0 394h97v306q20 3 46.5 4.5t55 2.5t56 1.5t50.5 0.5q92 0 159.5 -26.5t112 -73.5t66.5 -112t22 -142q0 -70 -20.5 -135.5t-65.5 -116.5t-115.5 -82t-170.5 -31q-17 0 -45.5 1t-58.5 2t-55.5 2.5t-36.5 3.5v329h-97v66zM197 394h160v-66h-160v-246q5 -1 19.5 -1.5
t30.5 -1t30 -1t20 -0.5q75 0 125.5 23.5t81 62.5t43 88.5t12.5 102.5q0 45 -12 92t-41 85.5t-77 63.5t-121 25h-30t-32 -1t-29 -2t-20 -2v-222z" />
    <glyph glyph-name="Ntilde" unicode="&#xd1;" horiz-adv-x="735" 
d="M235 445l-60 98h-4l12 -98v-445h-94v710h56l357 -454l57 -93h5l-12 93v444h94v-710h-56zM190 791q32 32 61 43.5t55 11.5q21 0 41.5 -5.5t39.5 -12t37 -12t36 -5.5q14 0 28.5 5t28.5 17l25 -51q-29 -24 -54.5 -33t-49.5 -9q-21 0 -41 5t-39 11.5t-37 11.5t-36 5
q-17 0 -35 -6.5t-36 -24.5z" />
    <glyph glyph-name="Ograve" unicode="&#xd2;" horiz-adv-x="747" 
d="M58 350q0 86 21.5 153.5t62 114t99 71t132.5 24.5q79 0 138.5 -26.5t99 -74t59 -114.5t19.5 -148q0 -86 -21.5 -153.5t-62.5 -114t-99.5 -71t-132.5 -24.5q-80 0 -139 26.5t-98 74t-58.5 114.5t-19.5 148zM164 350q0 -57 12.5 -107t38 -88t65 -60t93.5 -22q97 0 153.5 67
t56.5 210q0 56 -12.5 106t-38 88t-65 60.5t-94.5 22.5q-96 0 -152.5 -68t-56.5 -209zM449 752h-86l-173 95v23h132z" />
    <glyph glyph-name="Oacute" unicode="&#xd3;" horiz-adv-x="747" 
d="M58 350q0 86 21.5 153.5t62 114t99 71t132.5 24.5q79 0 138.5 -26.5t99 -74t59 -114.5t19.5 -148q0 -86 -21.5 -153.5t-62.5 -114t-99.5 -71t-132.5 -24.5q-80 0 -139 26.5t-98 74t-58.5 114.5t-19.5 148zM164 350q0 -57 12.5 -107t38 -88t65 -60t93.5 -22q97 0 153.5 67
t56.5 210q0 56 -12.5 106t-38 88t-65 60.5t-94.5 22.5q-96 0 -152.5 -68t-56.5 -209zM444 870h132v-23l-178 -95h-81z" />
    <glyph glyph-name="Ocircumflex" unicode="&#xd4;" horiz-adv-x="747" 
d="M58 350q0 86 21.5 153.5t62 114t99 71t132.5 24.5q79 0 138.5 -26.5t99 -74t59 -114.5t19.5 -148q0 -86 -21.5 -153.5t-62.5 -114t-99.5 -71t-132.5 -24.5q-80 0 -139 26.5t-98 74t-58.5 114.5t-19.5 148zM164 350q0 -57 12.5 -107t38 -88t65 -60t93.5 -22q97 0 153.5 67
t56.5 210q0 56 -12.5 106t-38 88t-65 60.5t-94.5 22.5q-96 0 -152.5 -68t-56.5 -209zM338 870h73l139 -100v-25h-92l-65 47l-20 35l-21 -34l-70 -48h-90v26z" />
    <glyph glyph-name="Otilde" unicode="&#xd5;" horiz-adv-x="747" 
d="M58 350q0 86 21.5 153.5t62 114t99 71t132.5 24.5q79 0 138.5 -26.5t99 -74t59 -114.5t19.5 -148q0 -86 -21.5 -153.5t-62.5 -114t-99.5 -71t-132.5 -24.5q-80 0 -139 26.5t-98 74t-58.5 114.5t-19.5 148zM164 350q0 -57 12.5 -107t38 -88t65 -60t93.5 -22q97 0 153.5 67
t56.5 210q0 56 -12.5 106t-38 88t-65 60.5t-94.5 22.5q-96 0 -152.5 -68t-56.5 -209zM195 791q32 32 61 43.5t55 11.5q21 0 41.5 -5.5t39.5 -12t37 -12t36 -5.5q14 0 28.5 5t28.5 17l25 -51q-29 -24 -54.5 -33t-49.5 -9q-21 0 -41 5t-39 11.5t-37 11.5t-36 5q-17 0 -35 -6.5
t-36 -24.5z" />
    <glyph glyph-name="Odieresis" unicode="&#xd6;" horiz-adv-x="747" 
d="M58 350q0 86 21.5 153.5t62 114t99 71t132.5 24.5q79 0 138.5 -26.5t99 -74t59 -114.5t19.5 -148q0 -86 -21.5 -153.5t-62.5 -114t-99.5 -71t-132.5 -24.5q-80 0 -139 26.5t-98 74t-58.5 114.5t-19.5 148zM164 350q0 -57 12.5 -107t38 -88t65 -60t93.5 -22q97 0 153.5 67
t56.5 210q0 56 -12.5 106t-38 88t-65 60.5t-94.5 22.5q-96 0 -152.5 -68t-56.5 -209zM203 795q0 23 16.5 36t45.5 13q28 0 45 -13t17 -36q0 -22 -17 -35.5t-45 -13.5q-29 0 -45.5 13.5t-16.5 35.5zM417 795q0 23 16.5 36t44.5 13q29 0 46 -13t17 -36q0 -22 -17 -35.5
t-46 -13.5q-28 0 -44.5 13.5t-16.5 35.5z" />
    <glyph glyph-name="multiply" unicode="&#xd7;" horiz-adv-x="554" 
d="M140 526l138 -130l139 130l58 -63l-136 -124l136 -126l-58 -62l-139 130l-139 -131l-59 61l137 128l-135 124z" />
    <glyph glyph-name="Oslash" unicode="&#xd8;" horiz-adv-x="747" 
d="M132 92q-38 48 -56 113.5t-18 144.5q0 86 21.5 153.5t62 114t99 71t132.5 24.5q59 0 106 -14.5t84 -41.5l44 57l61 -43l-51 -67q36 -48 54 -112t18 -142q0 -86 -21.5 -153.5t-62.5 -114t-99.5 -71t-132.5 -24.5q-113 0 -186 52l-40 -52l-61 45zM503 578q-24 23 -56.5 36
t-73.5 13q-96 0 -152.5 -68t-56.5 -209q0 -48 8.5 -91t26.5 -78zM247 118q24 -21 55.5 -33t70.5 -12q97 0 153.5 67t56.5 210q0 46 -8.5 88t-25.5 77z" />
    <glyph glyph-name="Ugrave" unicode="&#xd9;" horiz-adv-x="710" 
d="M527 700h94v-457q0 -65 -18.5 -112t-52.5 -78.5t-80.5 -46.5t-103.5 -15q-135 0 -206 58.5t-71 173.5v477h100v-439q0 -102 44.5 -142t131.5 -40q84 0 123 44t39 141v436zM446 752h-86l-173 95v23h132z" />
    <glyph glyph-name="Uacute" unicode="&#xda;" horiz-adv-x="710" 
d="M527 700h94v-457q0 -65 -18.5 -112t-52.5 -78.5t-80.5 -46.5t-103.5 -15q-135 0 -206 58.5t-71 173.5v477h100v-439q0 -102 44.5 -142t131.5 -40q84 0 123 44t39 141v436zM424 870h132v-23l-178 -95h-81z" />
    <glyph glyph-name="Ucircumflex" unicode="&#xdb;" horiz-adv-x="710" 
d="M527 700h94v-457q0 -65 -18.5 -112t-52.5 -78.5t-80.5 -46.5t-103.5 -15q-135 0 -206 58.5t-71 173.5v477h100v-439q0 -102 44.5 -142t131.5 -40q84 0 123 44t39 141v436zM326 870h73l139 -100v-25h-92l-65 47l-20 35l-21 -34l-70 -48h-90v26z" />
    <glyph glyph-name="Udieresis" unicode="&#xdc;" horiz-adv-x="710" 
d="M527 700h94v-457q0 -65 -18.5 -112t-52.5 -78.5t-80.5 -46.5t-103.5 -15q-135 0 -206 58.5t-71 173.5v477h100v-439q0 -102 44.5 -142t131.5 -40q84 0 123 44t39 141v436zM189 795q0 23 16.5 36t45.5 13q28 0 45 -13t17 -36q0 -22 -17 -35.5t-45 -13.5q-29 0 -45.5 13.5
t-16.5 35.5zM403 795q0 23 16.5 36t44.5 13q29 0 46 -13t17 -36q0 -22 -17 -35.5t-46 -13.5q-28 0 -44.5 13.5t-16.5 35.5z" />
    <glyph glyph-name="Yacute" unicode="&#xdd;" horiz-adv-x="617" 
d="M261 274l-254 426h117l175 -297l17 -64h2l19 66l167 295h106l-249 -425v-275h-100v274zM384 870h132v-23l-178 -95h-81z" />
    <glyph glyph-name="Thorn" unicode="&#xde;" horiz-adv-x="614" 
d="M89 700h100v-74q43 3 89 3q51 0 103.5 -9t95.5 -33t70.5 -66.5t27.5 -109.5q0 -63 -25 -107.5t-66.5 -72.5t-95 -41t-110.5 -13q-6 0 -18.5 0.5t-26 1t-26 1.5t-18.5 2v-182h-100v700zM189 268q5 -2 16.5 -2.5t24 -1.5t24 -1h17.5q36 0 71 5.5t63.5 21.5t46 45t17.5 75
q0 40 -17 66t-44 41t-60.5 20.5t-66.5 5.5q-27 0 -52.5 -1t-39.5 -5v-269z" />
    <glyph glyph-name="germandbls" unicode="&#xdf;" horiz-adv-x="677" 
d="M114 549q0 77 55 120t151 43q57 0 97.5 -12t66 -32t37 -46.5t11.5 -55.5q0 -31 -10 -53.5t-25 -39t-32.5 -29t-32.5 -24.5t-25 -25t-10 -30q0 -22 17 -34.5t43 -21.5t56 -18t56 -25t43 -42.5t17 -69.5q0 -31 -13.5 -61t-39.5 -54t-64.5 -38.5t-88.5 -14.5q-26 0 -46.5 2
t-37 6.5t-31.5 10.5t-30 15l26 73q13 -7 26 -12.5t27 -9t31 -5.5t39 -2q19 0 38.5 5.5t35 16t25 25t9.5 32.5q0 30 -17 47t-43 27.5t-56 18.5t-56 22t-43 36.5t-17 62.5q0 30 10 50.5t25 36.5t33 28.5t33 25t25 27.5t10 36q0 14 -5.5 27t-19 23t-36 16t-55.5 6
q-64 0 -90 -24.5t-26 -87.5v-521h-93v445h-90v80h90v24z" />
    <glyph glyph-name="agrave" unicode="&#xe0;" horiz-adv-x="582" 
d="M82 492q90 43 223 43q60 0 96.5 -15.5t56.5 -39.5t26.5 -53.5t6.5 -58.5q0 -55 -4 -110.5t-4 -120.5q0 -38 3.5 -73.5t11.5 -65.5h-67l-25 80h-10q-11 -15 -27 -30.5t-38 -27.5t-50.5 -20t-65.5 -8t-68 10.5t-53.5 29.5t-35.5 46.5t-13 61.5q0 45 19.5 78t50.5 54
t70.5 31t78.5 10q31 0 52.5 -1t36 -2.5t24.5 -3t18 -2.5q2 15 3 26t1 28q0 28 -6 47t-19.5 30.5t-36.5 16.5t-56 5q-19 0 -42 -3t-46 -8.5t-45.5 -13.5t-40.5 -17zM395 238q-8 1 -17 3t-22.5 3t-32 2t-45.5 1q-62 0 -98.5 -22t-36.5 -75q0 -40 28.5 -60t73.5 -20
q33 0 58.5 8.5t44 21t30 28t17.5 30.5v80zM342 570h-54l-127 127v23h110z" />
    <glyph glyph-name="aacute" unicode="&#xe1;" horiz-adv-x="582" 
d="M82 492q90 43 223 43q60 0 96.5 -15.5t56.5 -39.5t26.5 -53.5t6.5 -58.5q0 -55 -4 -110.5t-4 -120.5q0 -38 3.5 -73.5t11.5 -65.5h-67l-25 80h-10q-11 -15 -27 -30.5t-38 -27.5t-50.5 -20t-65.5 -8t-68 10.5t-53.5 29.5t-35.5 46.5t-13 61.5q0 45 19.5 78t50.5 54
t70.5 31t78.5 10q31 0 52.5 -1t36 -2.5t24.5 -3t18 -2.5q2 15 3 26t1 28q0 28 -6 47t-19.5 30.5t-36.5 16.5t-56 5q-19 0 -42 -3t-46 -8.5t-45.5 -13.5t-40.5 -17zM395 238q-8 1 -17 3t-22.5 3t-32 2t-45.5 1q-62 0 -98.5 -22t-36.5 -75q0 -40 28.5 -60t73.5 -20
q33 0 58.5 8.5t44 21t30 28t17.5 30.5v80zM267 720h104v-23l-112 -127h-56z" />
    <glyph glyph-name="acircumflex" unicode="&#xe2;" horiz-adv-x="582" 
d="M82 492q90 43 223 43q60 0 96.5 -15.5t56.5 -39.5t26.5 -53.5t6.5 -58.5q0 -55 -4 -110.5t-4 -120.5q0 -38 3.5 -73.5t11.5 -65.5h-67l-25 80h-10q-11 -15 -27 -30.5t-38 -27.5t-50.5 -20t-65.5 -8t-68 10.5t-53.5 29.5t-35.5 46.5t-13 61.5q0 45 19.5 78t50.5 54
t70.5 31t78.5 10q31 0 52.5 -1t36 -2.5t24.5 -3t18 -2.5q2 15 3 26t1 28q0 28 -6 47t-19.5 30.5t-36.5 16.5t-56 5q-19 0 -42 -3t-46 -8.5t-45.5 -13.5t-40.5 -17zM395 238q-8 1 -17 3t-22.5 3t-32 2t-45.5 1q-62 0 -98.5 -22t-36.5 -75q0 -40 28.5 -60t73.5 -20
q33 0 58.5 8.5t44 21t30 28t17.5 30.5v80zM275 773h41q31 -48 63 -94t62 -93h-80l-45 69l-26 71l-31 -71l-48 -69h-76z" />
    <glyph glyph-name="atilde" unicode="&#xe3;" horiz-adv-x="582" 
d="M82 492q90 43 223 43q60 0 96.5 -15.5t56.5 -39.5t26.5 -53.5t6.5 -58.5q0 -55 -4 -110.5t-4 -120.5q0 -38 3.5 -73.5t11.5 -65.5h-67l-25 80h-10q-11 -15 -27 -30.5t-38 -27.5t-50.5 -20t-65.5 -8t-68 10.5t-53.5 29.5t-35.5 46.5t-13 61.5q0 45 19.5 78t50.5 54
t70.5 31t78.5 10q31 0 52.5 -1t36 -2.5t24.5 -3t18 -2.5q2 15 3 26t1 28q0 28 -6 47t-19.5 30.5t-36.5 16.5t-56 5q-19 0 -42 -3t-46 -8.5t-45.5 -13.5t-40.5 -17zM395 238q-8 1 -17 3t-22.5 3t-32 2t-45.5 1q-62 0 -98.5 -22t-36.5 -75q0 -40 28.5 -60t73.5 -20
q33 0 58.5 8.5t44 21t30 28t17.5 30.5v80zM129 696q32 35 58 47.5t49 12.5q18 0 34.5 -6.5t33 -15t33 -15t35.5 -6.5q25 0 54 24l22 -48q-27 -28 -50.5 -39.5t-43.5 -11.5q-19 0 -36 7t-33.5 15t-33.5 15t-36 7q-16 0 -31.5 -6t-34.5 -24z" />
    <glyph glyph-name="adieresis" unicode="&#xe4;" horiz-adv-x="582" 
d="M82 492q90 43 223 43q60 0 96.5 -15.5t56.5 -39.5t26.5 -53.5t6.5 -58.5q0 -55 -4 -110.5t-4 -120.5q0 -38 3.5 -73.5t11.5 -65.5h-67l-25 80h-10q-11 -15 -27 -30.5t-38 -27.5t-50.5 -20t-65.5 -8t-68 10.5t-53.5 29.5t-35.5 46.5t-13 61.5q0 45 19.5 78t50.5 54
t70.5 31t78.5 10q31 0 52.5 -1t36 -2.5t24.5 -3t18 -2.5q2 15 3 26t1 28q0 28 -6 47t-19.5 30.5t-36.5 16.5t-56 5q-19 0 -42 -3t-46 -8.5t-45.5 -13.5t-40.5 -17zM395 238q-8 1 -17 3t-22.5 3t-32 2t-45.5 1q-62 0 -98.5 -22t-36.5 -75q0 -40 28.5 -60t73.5 -20
q33 0 58.5 8.5t44 21t30 28t17.5 30.5v80zM111 653q0 24 16 40t42 16q25 0 40.5 -16t15.5 -40q0 -23 -15.5 -39t-40.5 -16q-26 0 -42 16t-16 39zM326 653q0 24 15.5 40t41.5 16t41.5 -16t15.5 -40q0 -23 -15.5 -39t-41.5 -16t-41.5 16t-15.5 39z" />
    <glyph glyph-name="aring" unicode="&#xe5;" horiz-adv-x="582" 
d="M82 492q90 43 223 43q60 0 96.5 -15.5t56.5 -39.5t26.5 -53.5t6.5 -58.5q0 -55 -4 -110.5t-4 -120.5q0 -38 3.5 -73.5t11.5 -65.5h-67l-25 80h-10q-11 -15 -27 -30.5t-38 -27.5t-50.5 -20t-65.5 -8t-68 10.5t-53.5 29.5t-35.5 46.5t-13 61.5q0 45 19.5 78t50.5 54
t70.5 31t78.5 10q31 0 52.5 -1t36 -2.5t24.5 -3t18 -2.5q2 15 3 26t1 28q0 28 -6 47t-19.5 30.5t-36.5 16.5t-56 5q-19 0 -42 -3t-46 -8.5t-45.5 -13.5t-40.5 -17zM395 238q-8 1 -17 3t-22.5 3t-32 2t-45.5 1q-62 0 -98.5 -22t-36.5 -75q0 -40 28.5 -60t73.5 -20
q33 0 58.5 8.5t44 21t30 28t17.5 30.5v80zM179 683q0 42 29 68.5t80 26.5q48 0 80.5 -23.5t32.5 -71.5q0 -20 -8.5 -37t-23.5 -29.5t-36 -20t-45 -7.5q-48 0 -78.5 24.5t-30.5 69.5zM236 683q0 -20 16.5 -32.5t35.5 -12.5q23 0 39.5 11t16.5 34t-17 34.5t-39 11.5
q-20 0 -36 -11t-16 -35z" />
    <glyph glyph-name="ae" unicode="&#xe6;" horiz-adv-x="930" 
d="M397 236q-17 2 -35.5 1.5t-35.5 -0.5q-36 0 -69 -4t-58.5 -14t-40.5 -27t-15 -43q0 -36 28.5 -58.5t73.5 -22.5q33 0 58 8t43.5 20t31 26.5t19.5 28.5v85zM421 92q-15 -18 -35 -36t-45 -32t-56.5 -23t-69.5 -9q-37 0 -68 10t-53.5 29t-35.5 46.5t-13 61.5q0 45 20.5 76
t58 49.5t90 27t115.5 8.5q15 0 33.5 -0.5t35.5 1.5v3q3 24 3 53q0 56 -27 78t-93 22q-18 0 -40.5 -2.5t-46 -7t-46 -11t-40.5 -13.5l-25 66q42 21 100 33.5t123 12.5q57 0 97 -19t62 -51q16 19 37.5 33t45.5 23.5t50 14t50 4.5q40 0 79 -8.5t70 -31.5t50 -65t19 -108
q0 -14 -0.5 -31.5t-3.5 -43.5h-376q1 -45 11.5 -80.5t33 -60t58 -37.5t85.5 -13q38 0 76 12t63 31l33 -61q-34 -25 -88 -41t-110 -16q-70 0 -128.5 28t-87.5 78h-11zM777 318q1 40 -7.5 67.5t-25.5 44.5t-41 24.5t-54 7.5q-69 0 -109 -33t-50 -111h287z" />
    <glyph glyph-name="ccedilla" unicode="&#xe7;" horiz-adv-x="529" 
d="M484 36q-32 -23 -74 -35t-89 -14l-23 -40q49 -8 72.5 -26t23.5 -51q0 -42 -37 -67.5t-103 -25.5q-13 0 -26.5 1t-27.5 4l9 36q35 -2 55 1t30 10t12.5 15.5t2.5 16.5q0 17 -25.5 26.5t-73.5 14.5l52 87q-55 6 -93.5 28t-62.5 57.5t-35 83t-11 104.5q0 133 64.5 205.5
t185.5 72.5q53 0 92 -9.5t70 -23.5l-24 -75q-27 14 -58.5 22t-68.5 8q-163 0 -163 -200q0 -38 9 -73t29 -63t52.5 -44.5t79.5 -16.5q42 0 73.5 11.5t52.5 27.5z" />
    <glyph glyph-name="egrave" unicode="&#xe8;" horiz-adv-x="598" 
d="M515 43q-35 -26 -87 -41.5t-113 -15.5q-66 0 -114.5 19.5t-79.5 55.5t-46 87t-15 114q0 135 66.5 206.5t189.5 71.5q39 0 78 -8.5t70 -32t50.5 -64.5t19.5 -107q0 -16 -1 -37t-4 -41h-375q2 -92 44 -139t143 -47q42 0 80 14.5t59 34.5zM446 316q2 80 -32.5 113t-96.5 33
q-70 0 -111 -33t-48 -113h288zM373 570h-54l-127 127v23h110z" />
    <glyph glyph-name="eacute" unicode="&#xe9;" horiz-adv-x="598" 
d="M515 43q-35 -26 -87 -41.5t-113 -15.5q-66 0 -114.5 19.5t-79.5 55.5t-46 87t-15 114q0 135 66.5 206.5t189.5 71.5q39 0 78 -8.5t70 -32t50.5 -64.5t19.5 -107q0 -16 -1 -37t-4 -41h-375q2 -92 44 -139t143 -47q42 0 80 14.5t59 34.5zM446 316q2 80 -32.5 113t-96.5 33
q-70 0 -111 -33t-48 -113h288zM329 720h104v-23l-112 -127h-56z" />
    <glyph glyph-name="ecircumflex" unicode="&#xea;" horiz-adv-x="598" 
d="M515 43q-35 -26 -87 -41.5t-113 -15.5q-66 0 -114.5 19.5t-79.5 55.5t-46 87t-15 114q0 135 66.5 206.5t189.5 71.5q39 0 78 -8.5t70 -32t50.5 -64.5t19.5 -107q0 -16 -1 -37t-4 -41h-375q2 -92 44 -139t143 -47q42 0 80 14.5t59 34.5zM446 316q2 80 -32.5 113t-96.5 33
q-70 0 -111 -33t-48 -113h288zM284 773h41q31 -48 63 -94t62 -93h-80l-45 69l-26 71l-31 -71l-48 -69h-76z" />
    <glyph glyph-name="edieresis" unicode="&#xeb;" horiz-adv-x="598" 
d="M515 43q-35 -26 -87 -41.5t-113 -15.5q-66 0 -114.5 19.5t-79.5 55.5t-46 87t-15 114q0 135 66.5 206.5t189.5 71.5q39 0 78 -8.5t70 -32t50.5 -64.5t19.5 -107q0 -16 -1 -37t-4 -41h-375q2 -92 44 -139t143 -47q42 0 80 14.5t59 34.5zM446 316q2 80 -32.5 113t-96.5 33
q-70 0 -111 -33t-48 -113h288zM158 653q0 24 16 40t42 16q25 0 40.5 -16t15.5 -40q0 -23 -15.5 -39t-40.5 -16q-26 0 -42 16t-16 39zM373 653q0 24 15.5 40t41.5 16t41.5 -16t15.5 -40q0 -23 -15.5 -39t-41.5 -16t-41.5 16t-15.5 39z" />
    <glyph glyph-name="igrave" unicode="&#xec;" horiz-adv-x="317" 
d="M114 525h92v-525h-92v525zM191 570h-54l-127 127v23h110z" />
    <glyph glyph-name="iacute" unicode="&#xed;" horiz-adv-x="317" 
d="M114 525h92v-525h-92v525zM175 720h104v-23l-112 -127h-56z" />
    <glyph glyph-name="icircumflex" unicode="&#xee;" horiz-adv-x="317" 
d="M114 525h92v-525h-92v525zM139 773h41q31 -48 63 -94t62 -93h-80l-45 69l-26 71l-31 -71l-48 -69h-76z" />
    <glyph glyph-name="idieresis" unicode="&#xef;" horiz-adv-x="317" 
d="M114 525h92v-525h-92v525zM-4 653q0 24 16 40t42 16q25 0 40.5 -16t15.5 -40q0 -23 -15.5 -39t-40.5 -16q-26 0 -42 16t-16 39zM211 653q0 24 15.5 40t41.5 16t41.5 -16t15.5 -40q0 -23 -15.5 -39t-41.5 -16t-41.5 16t-15.5 39z" />
    <glyph glyph-name="eth" unicode="&#xf0;" horiz-adv-x="645" 
d="M434 669q69 -60 110 -149t41 -203q0 -86 -20.5 -148t-56 -103t-83.5 -60.5t-102 -19.5q-69 0 -118.5 23t-82 61t-47.5 87.5t-15 103.5q0 52 17.5 100.5t50.5 86.5t81.5 61t110.5 23q50 0 83.5 -12.5t53.5 -31.5l7 3q-20 40 -43.5 72t-52.5 58l-66 -49l-38 40l60 44
q-29 20 -59 33.5t-62 23.5l82 38q54 -17 103 -47l64 48l35 -44zM158 259q0 -95 47.5 -145t123.5 -50q35 0 65 14t52 43t34.5 74t12.5 107q0 20 -1 44.5t-6 38.5q-10 18 -27 31t-38 21.5t-44.5 12.5t-44.5 4q-46 0 -79 -15.5t-54 -42.5t-31 -62.5t-10 -74.5z" />
    <glyph glyph-name="ntilde" unicode="&#xf1;" horiz-adv-x="641" 
d="M461 0v290q0 84 -27 126t-96 42q-61 0 -101.5 -31.5t-56.5 -80.5v-346h-92v525h64l18 -70h9q29 36 75.5 60.5t111.5 24.5q46 0 81 -10.5t58.5 -37t35.5 -71t12 -112.5v-309h-92zM155 696q32 35 58 47.5t49 12.5q18 0 34.5 -6.5t33 -15t33 -15t35.5 -6.5q25 0 54 24
l22 -48q-27 -28 -50.5 -39.5t-43.5 -11.5q-19 0 -36 7t-33.5 15t-33.5 15t-36 7q-16 0 -31.5 -6t-34.5 -24z" />
    <glyph glyph-name="ograve" unicode="&#xf2;" horiz-adv-x="631" 
d="M60 262q0 65 17 116.5t50 87.5t80.5 55t108.5 19q64 0 112 -21t80 -58.5t47.5 -88t15.5 -110.5q0 -64 -17.5 -115t-50 -87t-80 -55t-107.5 -19q-66 0 -114 21t-79.5 58t-47 87.5t-15.5 109.5zM158 262q0 -37 8.5 -72.5t27.5 -63.5t49 -45t74 -17q156 0 156 198
q0 39 -8.5 75t-27 63.5t-48.5 44.5t-72 17q-78 0 -118.5 -49.5t-40.5 -150.5zM360 570h-54l-127 127v23h110z" />
    <glyph glyph-name="oacute" unicode="&#xf3;" horiz-adv-x="631" 
d="M60 262q0 65 17 116.5t50 87.5t80.5 55t108.5 19q64 0 112 -21t80 -58.5t47.5 -88t15.5 -110.5q0 -64 -17.5 -115t-50 -87t-80 -55t-107.5 -19q-66 0 -114 21t-79.5 58t-47 87.5t-15.5 109.5zM158 262q0 -37 8.5 -72.5t27.5 -63.5t49 -45t74 -17q156 0 156 198
q0 39 -8.5 75t-27 63.5t-48.5 44.5t-72 17q-78 0 -118.5 -49.5t-40.5 -150.5zM325 720h104v-23l-112 -127h-56z" />
    <glyph glyph-name="ocircumflex" unicode="&#xf4;" horiz-adv-x="631" 
d="M60 262q0 65 17 116.5t50 87.5t80.5 55t108.5 19q64 0 112 -21t80 -58.5t47.5 -88t15.5 -110.5q0 -64 -17.5 -115t-50 -87t-80 -55t-107.5 -19q-66 0 -114 21t-79.5 58t-47 87.5t-15.5 109.5zM158 262q0 -37 8.5 -72.5t27.5 -63.5t49 -45t74 -17q156 0 156 198
q0 39 -8.5 75t-27 63.5t-48.5 44.5t-72 17q-78 0 -118.5 -49.5t-40.5 -150.5zM299 773h41q31 -48 63 -94t62 -93h-80l-45 69l-26 71l-31 -71l-48 -69h-76z" />
    <glyph glyph-name="otilde" unicode="&#xf5;" horiz-adv-x="631" 
d="M60 262q0 65 17 116.5t50 87.5t80.5 55t108.5 19q64 0 112 -21t80 -58.5t47.5 -88t15.5 -110.5q0 -64 -17.5 -115t-50 -87t-80 -55t-107.5 -19q-66 0 -114 21t-79.5 58t-47 87.5t-15.5 109.5zM158 262q0 -37 8.5 -72.5t27.5 -63.5t49 -45t74 -17q156 0 156 198
q0 39 -8.5 75t-27 63.5t-48.5 44.5t-72 17q-78 0 -118.5 -49.5t-40.5 -150.5zM155 696q32 35 58 47.5t49 12.5q18 0 34.5 -6.5t33 -15t33 -15t35.5 -6.5q25 0 54 24l22 -48q-27 -28 -50.5 -39.5t-43.5 -11.5q-19 0 -36 7t-33.5 15t-33.5 15t-36 7q-16 0 -31.5 -6t-34.5 -24z
" />
    <glyph glyph-name="odieresis" unicode="&#xf6;" horiz-adv-x="631" 
d="M60 262q0 65 17 116.5t50 87.5t80.5 55t108.5 19q64 0 112 -21t80 -58.5t47.5 -88t15.5 -110.5q0 -64 -17.5 -115t-50 -87t-80 -55t-107.5 -19q-66 0 -114 21t-79.5 58t-47 87.5t-15.5 109.5zM158 262q0 -37 8.5 -72.5t27.5 -63.5t49 -45t74 -17q156 0 156 198
q0 39 -8.5 75t-27 63.5t-48.5 44.5t-72 17q-78 0 -118.5 -49.5t-40.5 -150.5zM137 653q0 24 16 40t42 16q25 0 40.5 -16t15.5 -40q0 -23 -15.5 -39t-40.5 -16q-26 0 -42 16t-16 39zM352 653q0 24 15.5 40t41.5 16t41.5 -16t15.5 -40q0 -23 -15.5 -39t-41.5 -16t-41.5 16
t-15.5 39z" />
    <glyph glyph-name="divide" unicode="&#xf7;" horiz-adv-x="554" 
d="M43 379h468v-84h-468v84zM210 525q0 29 18.5 46t48.5 17t48.5 -17t18.5 -46q0 -27 -18.5 -45t-48.5 -18t-48.5 18t-18.5 45zM210 149q0 29 18.5 46t48.5 17t48.5 -17t18.5 -46q0 -27 -18.5 -45t-48.5 -18t-48.5 18t-18.5 45z" />
    <glyph glyph-name="oslash" unicode="&#xf8;" horiz-adv-x="613" 
d="M108 73q-28 36 -41.5 83.5t-13.5 104.5q0 131 66.5 204.5t189.5 73.5q43 0 78 -9t63 -26l30 37l54 -44l-31 -39q30 -37 45 -87t15 -110q0 -131 -66.5 -203t-187.5 -72q-46 0 -83 10t-66 29l-31 -41l-57 44zM213 95q37 -31 96 -31q156 0 156 197q0 33 -6 64.5t-20 57.5z
M399 432q-17 14 -39.5 21.5t-50.5 7.5q-158 0 -158 -200q0 -30 5.5 -59t17.5 -54z" />
    <glyph glyph-name="ugrave" unicode="&#xf9;" horiz-adv-x="644" 
d="M180 525v-289q0 -42 5 -74t18 -53.5t35.5 -33t57.5 -11.5q60 0 98 34t58 84v343h92v-376q0 -38 3 -77.5t9 -71.5h-62l-24 87h-10q-26 -45 -72 -73t-115 -28q-46 0 -80.5 11t-58 37.5t-35 70.5t-11.5 110v310h92zM353 570h-54l-127 127v23h110z" />
    <glyph glyph-name="uacute" unicode="&#xfa;" horiz-adv-x="644" 
d="M180 525v-289q0 -42 5 -74t18 -53.5t35.5 -33t57.5 -11.5q60 0 98 34t58 84v343h92v-376q0 -38 3 -77.5t9 -71.5h-62l-24 87h-10q-26 -45 -72 -73t-115 -28q-46 0 -80.5 11t-58 37.5t-35 70.5t-11.5 110v310h92zM326 720h104v-23l-112 -127h-56z" />
    <glyph glyph-name="ucircumflex" unicode="&#xfb;" horiz-adv-x="644" 
d="M180 525v-289q0 -42 5 -74t18 -53.5t35.5 -33t57.5 -11.5q60 0 98 34t58 84v343h92v-376q0 -38 3 -77.5t9 -71.5h-62l-24 87h-10q-26 -45 -72 -73t-115 -28q-46 0 -80.5 11t-58 37.5t-35 70.5t-11.5 110v310h92zM308 773h41q31 -48 63 -94t62 -93h-80l-45 69l-26 71
l-31 -71l-48 -69h-76z" />
    <glyph glyph-name="udieresis" unicode="&#xfc;" horiz-adv-x="644" 
d="M180 525v-289q0 -42 5 -74t18 -53.5t35.5 -33t57.5 -11.5q60 0 98 34t58 84v343h92v-376q0 -38 3 -77.5t9 -71.5h-62l-24 87h-10q-26 -45 -72 -73t-115 -28q-46 0 -80.5 11t-58 37.5t-35 70.5t-11.5 110v310h92zM144 653q0 24 16 40t42 16q25 0 40.5 -16t15.5 -40
q0 -23 -15.5 -39t-40.5 -16q-26 0 -42 16t-16 39zM359 653q0 24 15.5 40t41.5 16t41.5 -16t15.5 -40q0 -23 -15.5 -39t-41.5 -16t-41.5 16t-15.5 39z" />
    <glyph glyph-name="yacute" unicode="&#xfd;" horiz-adv-x="531" 
d="M251 193l31 -101h13l25 102l109 331h94l-172 -475q-19 -49 -38.5 -95t-43 -81.5t-52 -57t-65.5 -21.5q-40 0 -68 9l15 78q15 -5 30 -5q20 0 36.5 5t30.5 18t25.5 36.5t21.5 60.5l-235 528h109zM303 720h104v-23l-112 -127h-56z" />
    <glyph glyph-name="thorn" unicode="&#xfe;" horiz-adv-x="630" 
d="M88 701h92v-235h8q26 34 63.5 53.5t91.5 19.5q114 0 170.5 -63t56.5 -202q0 -66 -19 -119.5t-53.5 -91t-83.5 -57.5t-110 -20q-20 0 -35 1.5t-29.5 4.5t-28.5 8t-31 11v-211h-92v901zM322 461q-111 0 -142 -124v-237q21 -16 50 -26t68 -10q81 0 127.5 53t46.5 158
q0 42 -8 76.5t-26 58.5t-46.5 37.5t-69.5 13.5z" />
    <glyph glyph-name="ydieresis" unicode="&#xff;" horiz-adv-x="531" 
d="M251 193l31 -101h13l25 102l109 331h94l-172 -475q-19 -49 -38.5 -95t-43 -81.5t-52 -57t-65.5 -21.5q-40 0 -68 9l15 78q15 -5 30 -5q20 0 36.5 5t30.5 18t25.5 36.5t21.5 60.5l-235 528h109zM89 653q0 24 16 40t42 16q25 0 40.5 -16t15.5 -40q0 -23 -15.5 -39
t-40.5 -16q-26 0 -42 16t-16 39zM304 653q0 24 15.5 40t41.5 16t41.5 -16t15.5 -40q0 -23 -15.5 -39t-41.5 -16t-41.5 16t-15.5 39z" />
    <glyph glyph-name="Amacron" unicode="&#x100;" horiz-adv-x="645" 
d="M457 183h-277l-74 -183h-98l288 710h52l289 -710h-104zM210 267h218l-81 199l-27 107h-2l-27 -109zM145 826h350v-68h-350v68z" />
    <glyph glyph-name="amacron" unicode="&#x101;" horiz-adv-x="582" 
d="M82 492q90 43 223 43q60 0 96.5 -15.5t56.5 -39.5t26.5 -53.5t6.5 -58.5q0 -55 -4 -110.5t-4 -120.5q0 -38 3.5 -73.5t11.5 -65.5h-67l-25 80h-10q-11 -15 -27 -30.5t-38 -27.5t-50.5 -20t-65.5 -8t-68 10.5t-53.5 29.5t-35.5 46.5t-13 61.5q0 45 19.5 78t50.5 54
t70.5 31t78.5 10q31 0 52.5 -1t36 -2.5t24.5 -3t18 -2.5q2 15 3 26t1 28q0 28 -6 47t-19.5 30.5t-36.5 16.5t-56 5q-19 0 -42 -3t-46 -8.5t-45.5 -13.5t-40.5 -17zM395 238q-8 1 -17 3t-22.5 3t-32 2t-45.5 1q-62 0 -98.5 -22t-36.5 -75q0 -40 28.5 -60t73.5 -20
q33 0 58.5 8.5t44 21t30 28t17.5 30.5v80zM114 666h328v-69h-328v69z" />
    <glyph glyph-name="Abreve" unicode="&#x102;" horiz-adv-x="645" 
d="M457 183h-277l-74 -183h-98l288 710h52l289 -710h-104zM210 267h218l-81 199l-27 107h-2l-27 -109zM180 872q19 -32 58 -49t90 -17q53 0 89.5 19.5t53.5 46.5l44 -23q-10 -28 -28.5 -50t-43.5 -37.5t-55 -23.5t-61 -8q-29 0 -58 6.5t-55 20.5t-47.5 35t-34.5 51z" />
    <glyph glyph-name="abreve" unicode="&#x103;" horiz-adv-x="582" 
d="M82 492q90 43 223 43q60 0 96.5 -15.5t56.5 -39.5t26.5 -53.5t6.5 -58.5q0 -55 -4 -110.5t-4 -120.5q0 -38 3.5 -73.5t11.5 -65.5h-67l-25 80h-10q-11 -15 -27 -30.5t-38 -27.5t-50.5 -20t-65.5 -8t-68 10.5t-53.5 29.5t-35.5 46.5t-13 61.5q0 45 19.5 78t50.5 54
t70.5 31t78.5 10q31 0 52.5 -1t36 -2.5t24.5 -3t18 -2.5q2 15 3 26t1 28q0 28 -6 47t-19.5 30.5t-36.5 16.5t-56 5q-19 0 -42 -3t-46 -8.5t-45.5 -13.5t-40.5 -17zM395 238q-8 1 -17 3t-22.5 3t-32 2t-45.5 1q-62 0 -98.5 -22t-36.5 -75q0 -40 28.5 -60t73.5 -20
q33 0 58.5 8.5t44 21t30 28t17.5 30.5v80zM162 759q21 -37 56.5 -56t75.5 -19q39 0 72.5 18.5t53.5 56.5l45 -19q-4 -24 -18.5 -47.5t-37.5 -41.5t-53 -29.5t-63 -11.5q-65 0 -114.5 34t-66.5 91z" />
    <glyph glyph-name="Aogonek" unicode="&#x104;" horiz-adv-x="645" 
d="M457 183h-277l-74 -183h-98l288 710h52l289 -710h-7q-34 -17 -54 -39.5t-19 -52.5q1 -23 16 -39t44 -16q10 0 22 2.5t25 7.5l12 -46q-17 -12 -47 -18.5t-57 -6.5q-51 0 -80.5 24.5t-29.5 67.5q0 40 31.5 69.5t84.5 46.5h-45zM210 267h218l-81 199l-27 107h-2l-27 -109z
" />
    <glyph glyph-name="aogonek" unicode="&#x105;" horiz-adv-x="582" 
d="M82 492q90 43 223 43q60 0 96.5 -15.5t56.5 -39.5t26.5 -53.5t6.5 -58.5q0 -55 -4 -110.5t-4 -120.5q0 -38 3.5 -73.5t11.5 -65.5h-11q-31 -16 -49 -38t-17 -51q1 -23 16 -39t44 -16q10 0 22 2.5t25 7.5l12 -46q-17 -12 -47 -18.5t-57 -6.5q-51 0 -80.5 24.5t-29.5 67.5
q0 38 29 67t78 46h-2l-25 80h-10q-11 -15 -27 -30.5t-38 -27.5t-50.5 -20t-65.5 -8t-68 10.5t-53.5 29.5t-35.5 46.5t-13 61.5q0 45 19.5 78t50.5 54t70.5 31t78.5 10q31 0 52.5 -1t36 -2.5t24.5 -3t18 -2.5q2 15 3 26t1 28q0 28 -6 47t-19.5 30.5t-36.5 16.5t-56 5
q-19 0 -42 -3t-46 -8.5t-45.5 -13.5t-40.5 -17zM395 238q-8 1 -17 3t-22.5 3t-32 2t-45.5 1q-62 0 -98.5 -22t-36.5 -75q0 -40 28.5 -60t73.5 -20q33 0 58.5 8.5t44 21t30 28t17.5 30.5v80z" />
    <glyph glyph-name="Cacute" unicode="&#x106;" horiz-adv-x="624" 
d="M584 30q-33 -24 -84 -33.5t-108 -9.5q-67 0 -127.5 21.5t-106.5 66t-73 113t-27 162.5q0 98 30 167t78 112.5t108 63.5t119 20q66 0 108 -7t71 -18l-22 -86q-49 23 -149 23q-45 0 -87.5 -14.5t-76 -47t-53.5 -85t-20 -128.5q0 -68 19 -119.5t52.5 -86t79 -52t99.5 -17.5
q49 0 85 9t61 23zM449 870h132v-23l-178 -95h-81z" />
    <glyph glyph-name="cacute" unicode="&#x107;" horiz-adv-x="529" 
d="M484 36q-35 -25 -82 -37.5t-99 -12.5q-66 0 -112.5 20t-75.5 56t-42 87t-13 113q0 133 64.5 205.5t185.5 72.5q53 0 92 -9.5t70 -23.5l-24 -75q-27 14 -58.5 22t-68.5 8q-163 0 -163 -200q0 -38 9 -73.5t29 -63t52.5 -44.5t79.5 -17q42 0 73.5 11.5t52.5 27.5zM321 720
h104v-23l-112 -127h-56z" />
    <glyph glyph-name="Ccircumflex" unicode="&#x108;" horiz-adv-x="624" 
d="M584 30q-33 -24 -84 -33.5t-108 -9.5q-67 0 -127.5 21.5t-106.5 66t-73 113t-27 162.5q0 98 30 167t78 112.5t108 63.5t119 20q66 0 108 -7t71 -18l-22 -86q-49 23 -149 23q-45 0 -87.5 -14.5t-76 -47t-53.5 -85t-20 -128.5q0 -68 19 -119.5t52.5 -86t79 -52t99.5 -17.5
q49 0 85 9t61 23zM345 870h73l139 -100v-25h-92l-65 47l-20 35l-21 -34l-70 -48h-90v26z" />
    <glyph glyph-name="ccircumflex" unicode="&#x109;" horiz-adv-x="529" 
d="M484 36q-35 -25 -82 -37.5t-99 -12.5q-66 0 -112.5 20t-75.5 56t-42 87t-13 113q0 133 64.5 205.5t185.5 72.5q53 0 92 -9.5t70 -23.5l-24 -75q-27 14 -58.5 22t-68.5 8q-163 0 -163 -200q0 -38 9 -73.5t29 -63t52.5 -44.5t79.5 -17q42 0 73.5 11.5t52.5 27.5zM275 773
h41q31 -48 63 -94t62 -93h-80l-45 69l-26 71l-31 -71l-48 -69h-76z" />
    <glyph glyph-name="Ccaron" unicode="&#x10c;" horiz-adv-x="624" 
d="M584 30q-33 -24 -84 -33.5t-108 -9.5q-67 0 -127.5 21.5t-106.5 66t-73 113t-27 162.5q0 98 30 167t78 112.5t108 63.5t119 20q66 0 108 -7t71 -18l-22 -86q-49 23 -149 23q-45 0 -87.5 -14.5t-76 -47t-53.5 -85t-20 -128.5q0 -68 19 -119.5t52.5 -86t79 -52t99.5 -17.5
q49 0 85 9t61 23zM419 744h-69l-139 101v25h93l64 -49l19 -33l21 32l68 50h89v-26z" />
    <glyph glyph-name="ccaron" unicode="&#x10d;" horiz-adv-x="529" 
d="M484 36q-35 -25 -82 -37.5t-99 -12.5q-66 0 -112.5 20t-75.5 56t-42 87t-13 113q0 133 64.5 205.5t185.5 72.5q53 0 92 -9.5t70 -23.5l-24 -75q-27 14 -58.5 22t-68.5 8q-163 0 -163 -200q0 -38 9 -73.5t29 -63t52.5 -44.5t79.5 -17q42 0 73.5 11.5t52.5 27.5zM315 586
h-49l-129 187h87l44 -68l28 -71l29 70l49 69h78z" />
    <glyph glyph-name="Dcaron" unicode="&#x10e;" horiz-adv-x="715" 
d="M89 700q20 3 46.5 4.5t55 2.5t56 1.5t50.5 0.5q92 0 159.5 -26.5t112 -73.5t66.5 -112t22 -142q0 -70 -20.5 -135.5t-65.5 -116.5t-115.5 -82t-170.5 -31q-17 0 -45.5 1t-58.5 2t-55.5 2.5t-36.5 3.5v701zM300 621h-30t-32 -1t-29 -2t-20 -2v-534q5 -1 19.5 -1.5t30.5 -1
t30 -1t20 -0.5q75 0 125.5 23.5t81 62.5t43 88.5t12.5 102.5q0 45 -12 92t-41 85.5t-77 63.5t-121 25zM341 744h-69l-139 101v25h93l64 -49l19 -33l21 32l68 50h89v-26z" />
    <glyph glyph-name="dcaron" unicode="&#x10f;" horiz-adv-x="648" 
d="M538 181q0 -51 1.5 -95.5t9.5 -87.5h-61l-23 80h-10q-23 -40 -67.5 -66t-103.5 -26q-113 0 -168.5 67t-55.5 206q0 134 68.5 205.5t192.5 71.5q21 0 37.5 -1.5t31 -3.5t28 -6t28.5 -8v183h92v-519zM446 428q-23 17 -49.5 23.5t-70.5 6.5q-81 0 -125.5 -47t-44.5 -153
q0 -42 8 -77.5t25 -61.5t45 -40.5t69 -14.5q61 0 95 30.5t48 90.5v243zM696 700q-2 -29 -12.5 -59.5t-24.5 -57.5t-28.5 -48t-24.5 -30l-40 23q19 36 28.5 81t9.5 91h92z" />
    <glyph glyph-name="Dcroat" unicode="&#x110;" horiz-adv-x="723" 
d="M0 394h97v306q20 3 46.5 4.5t55 2.5t56 1.5t50.5 0.5q92 0 159.5 -26.5t112 -73.5t66.5 -112t22 -142q0 -70 -20.5 -135.5t-65.5 -116.5t-115.5 -82t-170.5 -31q-17 0 -45.5 1t-58.5 2t-55.5 2.5t-36.5 3.5v329h-97v66zM197 394h160v-66h-160v-246q5 -1 19.5 -1.5
t30.5 -1t30 -1t20 -0.5q75 0 125.5 23.5t81 62.5t43 88.5t12.5 102.5q0 45 -12 92t-41 85.5t-77 63.5t-121 25h-30t-32 -1t-29 -2t-20 -2v-222z" />
    <glyph glyph-name="dcroat" unicode="&#x111;" horiz-adv-x="630" 
d="M538 649h92v-61h-92v-406q0 -51 1.5 -95.5t9.5 -87.5h-61l-23 80h-10q-23 -40 -67.5 -66t-103.5 -26q-113 0 -168.5 67t-55.5 206q0 134 68.5 205.5t192.5 71.5q21 0 37.5 -1.5t31 -3.5t28 -6t28.5 -8v70h-185v61h185v52h92v-52zM446 429q-23 17 -49.5 23.5t-70.5 6.5
q-81 0 -125.5 -47t-44.5 -153q0 -42 8 -77.5t25 -61.5t45 -40.5t69 -14.5q61 0 95 30.5t48 90.5v243z" />
    <glyph glyph-name="Emacron" unicode="&#x112;" horiz-adv-x="585" 
d="M89 700h423v-86h-323v-213h295v-86h-295v-229h328v-86h-428v700zM118 826h350v-68h-350v68z" />
    <glyph glyph-name="emacron" unicode="&#x113;" horiz-adv-x="598" 
d="M515 43q-35 -26 -87 -41.5t-113 -15.5q-66 0 -114.5 19.5t-79.5 55.5t-46 87t-15 114q0 135 66.5 206.5t189.5 71.5q39 0 78 -8.5t70 -32t50.5 -64.5t19.5 -107q0 -16 -1 -37t-4 -41h-375q2 -92 44 -139t143 -47q42 0 80 14.5t59 34.5zM446 316q2 80 -32.5 113t-96.5 33
q-70 0 -111 -33t-48 -113h288zM141 666h328v-69h-328v69z" />
    <glyph glyph-name="Edotaccent" unicode="&#x116;" horiz-adv-x="585" 
d="M89 700h423v-86h-323v-213h295v-86h-295v-229h328v-86h-428v700zM229 798q0 22 19 38t53 16t53.5 -16t19.5 -38q0 -24 -19.5 -39.5t-53.5 -15.5t-53 15.5t-19 39.5z" />
    <glyph glyph-name="edotaccent" unicode="&#x117;" horiz-adv-x="598" 
d="M515 43q-35 -26 -87 -41.5t-113 -15.5q-66 0 -114.5 19.5t-79.5 55.5t-46 87t-15 114q0 135 66.5 206.5t189.5 71.5q39 0 78 -8.5t70 -32t50.5 -64.5t19.5 -107q0 -16 -1 -37t-4 -41h-375q2 -92 44 -139t143 -47q42 0 80 14.5t59 34.5zM446 316q2 80 -32.5 113t-96.5 33
q-70 0 -111 -33t-48 -113h288zM244 650q0 23 18 41.5t47 18.5t48 -18.5t19 -41.5t-19 -40.5t-48 -17.5t-47 17.5t-18 40.5z" />
    <glyph glyph-name="Eogonek" unicode="&#x118;" horiz-adv-x="585" 
d="M89 700h423v-86h-323v-213h295v-86h-295v-229h328v-86h-21q-34 -17 -54 -39.5t-19 -52.5q1 -23 16 -39t44 -16q10 0 22 2.5t25 7.5l12 -46q-17 -12 -47 -18.5t-57 -6.5q-51 0 -80.5 24.5t-29.5 67.5q0 40 31.5 69.5t84.5 46.5h-355v700z" />
    <glyph glyph-name="eogonek" unicode="&#x119;" horiz-adv-x="598" 
d="M515 43q-33 -25 -76 -38h1q-33 -17 -51.5 -42.5t-17.5 -56.5q1 -23 17 -40t45 -17q20 0 44 9l12 -41q-18 -12 -46.5 -18.5t-53.5 -6.5q-52 0 -82.5 24t-30.5 66q0 32 20.5 59.5t55.5 46.5q-9 -1 -18.5 -1.5t-18.5 -0.5q-66 0 -114.5 19.5t-79.5 55.5t-46 87t-15 114
q0 135 66.5 206.5t189.5 71.5q39 0 78 -8.5t70 -32t50.5 -64.5t19.5 -107q0 -16 -1 -37t-4 -41h-375q2 -92 44 -139t143 -47q42 0 80 14.5t59 34.5zM446 316q2 80 -32.5 113t-96.5 33q-70 0 -111 -33t-48 -113h288z" />
    <glyph glyph-name="Ecaron" unicode="&#x11a;" horiz-adv-x="585" 
d="M89 700h423v-86h-323v-213h295v-86h-295v-229h328v-86h-428v700zM323 744h-69l-139 101v25h93l64 -49l19 -33l21 32l68 50h89v-26z" />
    <glyph glyph-name="ecaron" unicode="&#x11b;" horiz-adv-x="598" 
d="M515 43q-35 -26 -87 -41.5t-113 -15.5q-66 0 -114.5 19.5t-79.5 55.5t-46 87t-15 114q0 135 66.5 206.5t189.5 71.5q39 0 78 -8.5t70 -32t50.5 -64.5t19.5 -107q0 -16 -1 -37t-4 -41h-375q2 -92 44 -139t143 -47q42 0 80 14.5t59 34.5zM446 316q2 80 -32.5 113t-96.5 33
q-70 0 -111 -33t-48 -113h288zM328 586h-49l-129 187h87l44 -68l28 -71l29 70l49 69h78z" />
    <glyph glyph-name="Gcircumflex" unicode="&#x11c;" horiz-adv-x="668" 
d="M348 353h262v-309q-18 -14 -43 -24.5t-53.5 -17.5t-58.5 -11t-59 -4q-72 0 -133.5 21.5t-107 66.5t-71.5 113.5t-26 161.5q0 97 31.5 166t81.5 113t111.5 64t122.5 20q66 0 109.5 -7.5t72.5 -18.5l-24 -85q-52 23 -150 23q-45 0 -89.5 -14t-80 -46.5t-57.5 -85
t-22 -129.5q0 -71 18.5 -123t51.5 -86t78 -50t98 -16q33 0 63.5 6.5t53.5 18.5v177l-179 18v58zM356 870h73l139 -100v-25h-92l-65 47l-20 35l-21 -34l-70 -48h-90v26z" />
    <glyph glyph-name="gcircumflex" unicode="&#x11d;" horiz-adv-x="627" 
d="M537 -3q0 -103 -60.5 -153.5t-177.5 -50.5q-68 0 -110 8t-72 22l22 83q13 -6 30 -12.5t36 -11.5t38.5 -8t37.5 -3q49 0 81 8.5t51 26.5t26 46t7 67v37h-11q-16 -26 -56 -42t-97 -16q-114 0 -168 61.5t-54 198.5q0 135 70 208t208 73q66 0 113.5 -8t85.5 -21v-513zM302 76
q61 0 95.5 31t47.5 81v258q-23 7 -53 11t-68 4q-78 0 -122 -49.5t-44 -151.5q0 -88 32.5 -136t111.5 -48zM302 773h41q31 -48 63 -94t62 -93h-80l-45 69l-26 71l-31 -71l-48 -69h-76z" />
    <glyph glyph-name="Gbreve" unicode="&#x11e;" horiz-adv-x="668" 
d="M348 353h262v-309q-18 -14 -43 -24.5t-53.5 -17.5t-58.5 -11t-59 -4q-72 0 -133.5 21.5t-107 66.5t-71.5 113.5t-26 161.5q0 97 31.5 166t81.5 113t111.5 64t122.5 20q66 0 109.5 -7.5t72.5 -18.5l-24 -85q-52 23 -150 23q-45 0 -89.5 -14t-80 -46.5t-57.5 -85
t-22 -129.5q0 -71 18.5 -123t51.5 -86t78 -50t98 -16q33 0 63.5 6.5t53.5 18.5v177l-179 18v58zM239 872q19 -32 58 -49t90 -17q53 0 89.5 19.5t53.5 46.5l44 -23q-10 -28 -28.5 -50t-43.5 -37.5t-55 -23.5t-61 -8q-29 0 -58 6.5t-55 20.5t-47.5 35t-34.5 51z" />
    <glyph glyph-name="gbreve" unicode="&#x11f;" horiz-adv-x="627" 
d="M537 -3q0 -103 -60.5 -153.5t-177.5 -50.5q-68 0 -110 8t-72 22l22 83q13 -6 30 -12.5t36 -11.5t38.5 -8t37.5 -3q49 0 81 8.5t51 26.5t26 46t7 67v37h-11q-16 -26 -56 -42t-97 -16q-114 0 -168 61.5t-54 198.5q0 135 70 208t208 73q66 0 113.5 -8t85.5 -21v-513zM302 76
q61 0 95.5 31t47.5 81v258q-23 7 -53 11t-68 4q-78 0 -122 -49.5t-44 -151.5q0 -88 32.5 -136t111.5 -48zM185 759q21 -37 56.5 -56t75.5 -19q39 0 72.5 18.5t53.5 56.5l45 -19q-4 -24 -18.5 -47.5t-37.5 -41.5t-53 -29.5t-63 -11.5q-65 0 -114.5 34t-66.5 91z" />
    <glyph glyph-name="Gcommaaccent" unicode="&#x122;" horiz-adv-x="668" 
d="M348 353h262v-309q-18 -14 -43 -24.5t-53.5 -17.5t-58.5 -11t-59 -4q-72 0 -133.5 21.5t-107 66.5t-71.5 113.5t-26 161.5q0 97 31.5 166t81.5 113t111.5 64t122.5 20q66 0 109.5 -7.5t72.5 -18.5l-24 -85q-52 23 -150 23q-45 0 -89.5 -14t-80 -46.5t-57.5 -85
t-22 -129.5q0 -71 18.5 -123t51.5 -86t78 -50t98 -16q33 0 63.5 6.5t53.5 18.5v177l-179 18v58zM317 -102q0 22 17.5 36t40.5 14q29 0 50.5 -19t21.5 -59q0 -27 -10 -48t-24 -36t-29.5 -24t-27.5 -13l-29 40q19 8 32.5 23.5t13.5 38.5q-23 -5 -39.5 9t-16.5 38z" />
    <glyph glyph-name="gcommaaccent" unicode="&#x123;" horiz-adv-x="627" 
d="M537 -3q0 -103 -60.5 -153.5t-177.5 -50.5q-68 0 -110 8t-72 22l22 83q13 -6 30 -12.5t36 -11.5t38.5 -8t37.5 -3q49 0 81 8.5t51 26.5t26 46t7 67v37h-11q-16 -26 -56 -42t-97 -16q-114 0 -168 61.5t-54 198.5q0 135 70 208t208 73q66 0 113.5 -8t85.5 -21v-513zM302 76
q61 0 95.5 31t47.5 81v258q-23 7 -53 11t-68 4q-78 0 -122 -49.5t-44 -151.5q0 -88 32.5 -136t111.5 -48zM388.004 647.994q0 -21.999 -17.499 -35.998t-40.498 -13.999q-28.998 0 -50.4971 18.999q-21.498 18.998 -21.498 58.9961q0 26.998 9.99902 47.9971
q10 20.999 23.999 35.998t29.498 23.998q15.499 9 27.498 12.999l28.998 -39.9971q-18.998 -8 -32.498 -23.499q-13.499 -15.499 -13.499 -38.4971q22.999 4.99902 39.498 -9t16.499 -37.9971z" />
    <glyph glyph-name="Hcircumflex" unicode="&#x124;" horiz-adv-x="733" 
d="M544 313h-355v-313h-100v700h100v-299h355v299h100v-700h-100v313zM331 870h73l139 -100v-25h-92l-65 47l-20 35l-21 -34l-70 -48h-90v26z" />
    <glyph glyph-name="hcircumflex" unicode="&#x125;" horiz-adv-x="641" 
d="M461 0v290q0 43 -5.5 74.5t-20 52.5t-39 31t-61.5 10q-26 0 -51 -9t-46 -25t-36 -38.5t-22 -50.5v-335h-92v700h92v-240h11q30 36 72 58t104 22q48 0 83 -10.5t58 -37t34 -71t11 -111.5v-310h-92zM288 870h73l139 -100v-25h-92l-65 47l-20 35l-21 -34l-70 -48h-90v26z
" />
    <glyph glyph-name="Hbar" unicode="&#x126;" horiz-adv-x="741" 
d="M7 590h87v110h100v-110h355v110h100v-110h85v-70h-85v-520h-100v313h-355v-313h-100v520h-87v70zM549 401v119h-355v-119h355z" />
    <glyph glyph-name="hbar" unicode="&#x127;" horiz-adv-x="647" 
d="M0 634h94v66h92v-66h171v-66h-171v-108h11q30 36 72 58t104 22q48 0 83 -10.5t58 -37t34 -71t11 -111.5v-310h-92v290q0 43 -5.5 74.5t-20 52.5t-39 31t-61.5 10q-26 0 -51 -9t-46 -25t-36 -38.5t-22 -50.5v-335h-92v568h-94v66z" />
    <glyph glyph-name="Imacron" unicode="&#x12a;" horiz-adv-x="398" 
d="M149 634h-80v66h260v-66h-80v-568h80v-66h-260v66h80v568zM26 826h350v-68h-350v68z" />
    <glyph glyph-name="imacron" unicode="&#x12b;" horiz-adv-x="317" 
d="M114 525h92v-525h-92v525zM-4 666h328v-69h-328v69z" />
    <glyph glyph-name="Iogonek" unicode="&#x12e;" horiz-adv-x="398" 
d="M149 634h-80v66h260v-66h-80v-568h80v-66h-76q-32 -17 -50.5 -40t-17.5 -52q1 -23 16 -39t44 -16q10 0 22 2.5t25 7.5l12 -46q-17 -12 -47 -18.5t-57 -6.5q-51 0 -80.5 24.5t-29.5 67.5q0 39 29.5 69t79.5 47h-130v66h80v568z" />
    <glyph glyph-name="iogonek" unicode="&#x12f;" horiz-adv-x="310" 
d="M113 525h92v-525h-12q-35 -19 -44.5 -40.5t-8.5 -50.5q1 -23 16.5 -40.5t45.5 -17.5q20 0 44 9l11 -42q-17 -11 -45.5 -18t-54.5 -7q-51 0 -81.5 25t-30.5 67q0 44 28 70t83 45h-43v525zM93 645q0 23 18 41.5t47 18.5t48 -18.5t19 -41.5t-19 -40.5t-48 -17.5t-47 17.5
t-18 40.5z" />
    <glyph glyph-name="Idotaccent" unicode="&#x130;" horiz-adv-x="398" 
d="M149 634h-80v66h260v-66h-80v-568h80v-66h-260v66h80v568zM126 798q0 22 19 38t53 16t53.5 -16t19.5 -38q0 -24 -19.5 -39.5t-53.5 -15.5t-53 15.5t-19 39.5z" />
    <glyph glyph-name="dotlessi" unicode="&#x131;" horiz-adv-x="317" 
d="M114 525h92v-525h-92v525z" />
    <glyph glyph-name="Jcircumflex" unicode="&#x134;" horiz-adv-x="325" 
d="M125 700h100v-540q0 -78 -40.5 -124t-119.5 -46q-10 0 -23.5 1t-27.5 3.5t-27 5.5t-22 7l19 83q28 -12 67 -12q45 0 59.5 29t14.5 80v513zM140 870h73l139 -100v-25h-92l-65 47l-20 35l-21 -34l-70 -48h-90v26z" />
    <glyph glyph-name="jcircumflex" unicode="&#x135;" horiz-adv-x="312" 
d="M112 525h92v-543q0 -97 -36.5 -144.5t-117.5 -47.5h-17.5t-20.5 2v76q33 -1 52.5 8t30 27.5t14 46t3.5 65.5v510zM144 773h41q31 -48 63 -94t62 -93h-80l-45 69l-26 71l-31 -71l-48 -69h-76z" />
    <glyph glyph-name="Kcommaaccent" unicode="&#x136;" horiz-adv-x="669" 
d="M238 318h-49v-318h-100v700h100v-322l46 14l252 308h114l-252 -300l-47 -34l55 -40l278 -326h-126zM250 -102q0 22 17.5 36t40.5 14q29 0 50.5 -19t21.5 -59q0 -27 -10 -48t-24 -36t-29.5 -24t-27.5 -13l-29 40q19 8 32.5 23.5t13.5 38.5q-23 -5 -39.5 9t-16.5 38z" />
    <glyph glyph-name="kcommaaccent" unicode="&#x137;" horiz-adv-x="557" 
d="M237 236h-57v-236h-92v700h92v-414l52 17l174 222h108l-167 -203h1l-55 -40l63 -45l185 -237h-116zM206 -102q0 22 17.5 36t40.5 14q29 0 50.5 -19t21.5 -59q0 -27 -10 -48t-24 -36t-29.5 -24t-27.5 -13l-29 40q19 8 32.5 23.5t13.5 38.5q-23 -5 -39.5 9t-16.5 38z" />
    <glyph glyph-name="Lacute" unicode="&#x139;" horiz-adv-x="566" 
d="M547 0h-458v700h100v-612h358v-88zM254 870h132v-23l-178 -95h-81z" />
    <glyph glyph-name="lacute" unicode="&#x13a;" horiz-adv-x="336" 
d="M192 139q0 -41 15.5 -58t41.5 -17q16 0 31 2t36 8l12 -68q-10 -4 -24 -7.5t-29 -6.5t-30 -4.5t-27 -1.5q-54 0 -86 27.5t-32 91.5v595h92v-561zM224 870h132v-23l-178 -95h-81z" />
    <glyph glyph-name="Lcommaaccent" unicode="&#x13b;" horiz-adv-x="566" 
d="M547 0h-458v700h100v-612h358v-88zM207 -102q0 22 17.5 36t40.5 14q29 0 50.5 -19t21.5 -59q0 -27 -10 -48t-24 -36t-29.5 -24t-27.5 -13l-29 40q19 8 32.5 23.5t13.5 38.5q-23 -5 -39.5 9t-16.5 38z" />
    <glyph glyph-name="lcommaaccent" unicode="&#x13c;" horiz-adv-x="336" 
d="M192 139q0 -41 15.5 -58t41.5 -17q16 0 31 2t36 8l12 -68q-10 -4 -24 -7.5t-29 -6.5t-30 -4.5t-27 -1.5q-54 0 -86 27.5t-32 91.5v595h92v-561zM133 -102q0 22 17.5 36t40.5 14q29 0 50.5 -19t21.5 -59q0 -27 -10 -48t-24 -36t-29.5 -24t-27.5 -13l-29 40q19 8 32.5 23.5
t13.5 38.5q-23 -5 -39.5 9t-16.5 38z" />
    <glyph glyph-name="Lcaron" unicode="&#x13d;" horiz-adv-x="566" 
d="M547 0h-458v700h100v-612h358v-88zM473 700q-2 -29 -12.5 -59.5t-24.5 -57.5t-28.5 -48t-24.5 -30l-40 23q19 36 28.5 81t9.5 91h92z" />
    <glyph glyph-name="lcaron" unicode="&#x13e;" horiz-adv-x="336" 
d="M192 139q0 -41 15.5 -58t41.5 -17q16 0 31 2t36 8l12 -68q-10 -4 -24 -7.5t-29 -6.5t-30 -4.5t-27 -1.5q-54 0 -86 27.5t-32 91.5v595h92v-561zM358 700q-2 -29 -12.5 -59.5t-24.5 -57.5t-28.5 -48t-24.5 -30l-40 23q19 36 28.5 81t9.5 91h92z" />
    <glyph glyph-name="Lslash" unicode="&#x141;" horiz-adv-x="570" 
d="M15 293l78 55v352h100v-282l114 80v-89l-114 -79v-242h358v-88h-458v261l-78 -53v85z" />
    <glyph glyph-name="lslash" unicode="&#x142;" horiz-adv-x="336" 
d="M7 289l93 65v346h92v-281l107 75v-89l-107 -74v-192q0 -41 15.5 -58t41.5 -17q16 0 31 2t36 8l12 -68q-10 -4 -24 -7.5t-29 -6.5t-30 -4.5t-27 -1.5q-54 0 -86 27.5t-32 91.5v163l-93 -64v85z" />
    <glyph glyph-name="Nacute" unicode="&#x143;" horiz-adv-x="735" 
d="M235 445l-60 98h-4l12 -98v-445h-94v710h56l357 -454l57 -93h5l-12 93v444h94v-710h-56zM435 870h132v-23l-178 -95h-81z" />
    <glyph glyph-name="nacute" unicode="&#x144;" horiz-adv-x="641" 
d="M461 0v290q0 84 -27 126t-96 42q-61 0 -101.5 -31.5t-56.5 -80.5v-346h-92v525h64l18 -70h9q29 36 75.5 60.5t111.5 24.5q46 0 81 -10.5t58.5 -37t35.5 -71t12 -112.5v-309h-92zM332 720h104v-23l-112 -127h-56z" />
    <glyph glyph-name="Ncommaaccent" unicode="&#x145;" horiz-adv-x="735" 
d="M235 445l-60 98h-4l12 -98v-445h-94v710h56l357 -454l57 -93h5l-12 93v444h94v-710h-56zM299 -102q0 22 17.5 36t40.5 14q29 0 50.5 -19t21.5 -59q0 -27 -10 -48t-24 -36t-29.5 -24t-27.5 -13l-29 40q19 8 32.5 23.5t13.5 38.5q-23 -5 -39.5 9t-16.5 38z" />
    <glyph glyph-name="ncommaaccent" unicode="&#x146;" horiz-adv-x="641" 
d="M461 0v290q0 84 -27 126t-96 42q-61 0 -101.5 -31.5t-56.5 -80.5v-346h-92v525h64l18 -70h9q29 36 75.5 60.5t111.5 24.5q46 0 81 -10.5t58.5 -37t35.5 -71t12 -112.5v-309h-92zM241 -102q0 22 17.5 36t40.5 14q29 0 50.5 -19t21.5 -59q0 -27 -10 -48t-24 -36t-29.5 -24
t-27.5 -13l-29 40q19 8 32.5 23.5t13.5 38.5q-23 -5 -39.5 9t-16.5 38z" />
    <glyph glyph-name="Ncaron" unicode="&#x147;" horiz-adv-x="735" 
d="M235 445l-60 98h-4l12 -98v-445h-94v710h56l357 -454l57 -93h5l-12 93v444h94v-710h-56zM400 744h-69l-139 101v25h93l64 -49l19 -33l21 32l68 50h89v-26z" />
    <glyph glyph-name="ncaron" unicode="&#x148;" horiz-adv-x="641" 
d="M461 0v290q0 84 -27 126t-96 42q-61 0 -101.5 -31.5t-56.5 -80.5v-346h-92v525h64l18 -70h9q29 36 75.5 60.5t111.5 24.5q46 0 81 -10.5t58.5 -37t35.5 -71t12 -112.5v-309h-92zM336 586h-49l-129 187h87l44 -68l28 -71l29 70l49 69h78z" />
    <glyph glyph-name="Omacron" unicode="&#x14c;" horiz-adv-x="747" 
d="M58 350q0 86 21.5 153.5t62 114t99 71t132.5 24.5q79 0 138.5 -26.5t99 -74t59 -114.5t19.5 -148q0 -86 -21.5 -153.5t-62.5 -114t-99.5 -71t-132.5 -24.5q-80 0 -139 26.5t-98 74t-58.5 114.5t-19.5 148zM164 350q0 -57 12.5 -107t38 -88t65 -60t93.5 -22q97 0 153.5 67
t56.5 210q0 56 -12.5 106t-38 88t-65 60.5t-94.5 22.5q-96 0 -152.5 -68t-56.5 -209zM205 826h350v-68h-350v68z" />
    <glyph glyph-name="omacron" unicode="&#x14d;" horiz-adv-x="631" 
d="M60 262q0 65 17 116.5t50 87.5t80.5 55t108.5 19q64 0 112 -21t80 -58.5t47.5 -88t15.5 -110.5q0 -64 -17.5 -115t-50 -87t-80 -55t-107.5 -19q-66 0 -114 21t-79.5 58t-47 87.5t-15.5 109.5zM158 262q0 -37 8.5 -72.5t27.5 -63.5t49 -45t74 -17q156 0 156 198
q0 39 -8.5 75t-27 63.5t-48.5 44.5t-72 17q-78 0 -118.5 -49.5t-40.5 -150.5zM146 666h328v-69h-328v69z" />
    <glyph glyph-name="Ohungarumlaut" unicode="&#x150;" horiz-adv-x="747" 
d="M58 350q0 86 21.5 153.5t62 114t99 71t132.5 24.5q79 0 138.5 -26.5t99 -74t59 -114.5t19.5 -148q0 -86 -21.5 -153.5t-62.5 -114t-99.5 -71t-132.5 -24.5q-80 0 -139 26.5t-98 74t-58.5 114.5t-19.5 148zM164 350q0 -57 12.5 -107t38 -88t65 -60t93.5 -22q97 0 153.5 67
t56.5 210q0 56 -12.5 106t-38 88t-65 60.5t-94.5 22.5q-96 0 -152.5 -68t-56.5 -209zM326 850h108v-16l-109 -93h-68zM509 850h115v-16l-157 -93h-69z" />
    <glyph glyph-name="ohungarumlaut" unicode="&#x151;" horiz-adv-x="631" 
d="M60 262q0 65 17 116.5t50 87.5t80.5 55t108.5 19q64 0 112 -21t80 -58.5t47.5 -88t15.5 -110.5q0 -64 -17.5 -115t-50 -87t-80 -55t-107.5 -19q-66 0 -114 21t-79.5 58t-47 87.5t-15.5 109.5zM158 262q0 -37 8.5 -72.5t27.5 -63.5t49 -45t74 -17q156 0 156 198
q0 39 -8.5 75t-27 63.5t-48.5 44.5t-72 17q-78 0 -118.5 -49.5t-40.5 -150.5zM244 739h90v-12l-80 -117h-49zM419 739h101v-11l-132 -118h-51z" />
    <glyph glyph-name="OE" unicode="&#x152;" horiz-adv-x="1019" 
d="M522 605q-29 11 -68 16.5t-81 5.5q-97 0 -153 -68t-56 -209q0 -57 12.5 -107t38.5 -88t67.5 -60t98.5 -22q32 0 65 2.5t76 15.5v514zM522 0q-26 -6 -64 -9.5t-84 -3.5q-81 0 -140.5 26t-98.5 74t-58 115t-19 148q0 174 83 268.5t233 94.5q49 0 82.5 -4t65.5 -9h423v-86
h-323v-213h296v-86h-296v-229h329v-86h-429z" />
    <glyph glyph-name="oe" unicode="&#x153;" horiz-adv-x="1004" 
d="M156 261q0 -39 8.5 -74.5t27.5 -62.5t49 -43.5t73 -16.5q78 0 118 47t40 150q0 40 -8.5 76.5t-27.5 64t-49 43.5t-73 16q-78 0 -118 -48.5t-40 -151.5zM510 82q-30 -44 -80 -70t-116 -26q-65 0 -113 20.5t-79.5 57.5t-46.5 87t-15 110q0 133 65.5 205.5t188.5 72.5
q40 0 70.5 -5.5t54.5 -17.5t42.5 -31t35.5 -45q34 44 85 71.5t120 27.5q39 0 78 -8.5t70 -32t50.5 -64.5t19.5 -106q0 -15 -0.5 -35t-5.5 -43h-374q1 -46 11.5 -81t32.5 -59t57 -36t85 -12q39 0 76 11.5t63 30.5l33 -62q-35 -26 -86.5 -41t-109.5 -15q-70 0 -121.5 25
t-83.5 71h-7zM850 316q2 79 -32.5 113t-94.5 34q-69 0 -109.5 -34t-48.5 -113h285z" />
    <glyph glyph-name="Racute" unicode="&#x154;" horiz-adv-x="653" 
d="M89 693q21 4 46.5 7t51.5 5t52 3t49 1q50 0 96.5 -10t82 -33t57 -60t21.5 -91q0 -42 -13 -76t-36 -60t-54.5 -43.5t-68.5 -26.5l52 -35l188 -274h-115l-208 295l-101 14v-309h-100v693zM291 623h-28.5t-28.5 -1t-26 -2t-19 -3v-242h82q36 0 66.5 7.5t53 23t35.5 40.5
t13 61q0 54 -38 85t-110 31zM345 870h132v-23l-178 -95h-81z" />
    <glyph glyph-name="racute" unicode="&#x155;" horiz-adv-x="380" 
d="M362 438q-17 5 -33 9t-30 4q-53 0 -82.5 -27t-36.5 -68v-356h-92v525h64l18 -70h9q23 39 53.5 60.5t76.5 21.5q14 0 33 -2.5t38 -8.5zM210 720h104v-23l-112 -127h-56z" />
    <glyph glyph-name="Rcommaaccent" unicode="&#x156;" horiz-adv-x="653" 
d="M89 693q21 4 46.5 7t51.5 5t52 3t49 1q50 0 96.5 -10t82 -33t57 -60t21.5 -91q0 -42 -13 -76t-36 -60t-54.5 -43.5t-68.5 -26.5l52 -35l188 -274h-115l-208 295l-101 14v-309h-100v693zM291 623h-28.5t-28.5 -1t-26 -2t-19 -3v-242h82q36 0 66.5 7.5t53 23t35.5 40.5
t13 61q0 54 -38 85t-110 31zM258 -102q0 22 17.5 36t40.5 14q29 0 50.5 -19t21.5 -59q0 -27 -10 -48t-24 -36t-29.5 -24t-27.5 -13l-29 40q19 8 32.5 23.5t13.5 38.5q-23 -5 -39.5 9t-16.5 38z" />
    <glyph glyph-name="rcommaaccent" unicode="&#x157;" horiz-adv-x="380" 
d="M362 438q-17 5 -33 9t-30 4q-53 0 -82.5 -27t-36.5 -68v-356h-92v525h64l18 -70h9q23 39 53.5 60.5t76.5 21.5q14 0 33 -2.5t38 -8.5zM96 -102q0 22 17.5 36t40.5 14q29 0 50.5 -19t21.5 -59q0 -27 -10 -48t-24 -36t-29.5 -24t-27.5 -13l-29 40q19 8 32.5 23.5t13.5 38.5
q-23 -5 -39.5 9t-16.5 38z" />
    <glyph glyph-name="Rcaron" unicode="&#x158;" horiz-adv-x="653" 
d="M89 693q21 4 46.5 7t51.5 5t52 3t49 1q50 0 96.5 -10t82 -33t57 -60t21.5 -91q0 -42 -13 -76t-36 -60t-54.5 -43.5t-68.5 -26.5l52 -35l188 -274h-115l-208 295l-101 14v-309h-100v693zM291 623h-28.5t-28.5 -1t-26 -2t-19 -3v-242h82q36 0 66.5 7.5t53 23t35.5 40.5
t13 61q0 54 -38 85t-110 31zM307 744h-69l-139 101v25h93l64 -49l19 -33l21 32l68 50h89v-26z" />
    <glyph glyph-name="rcaron" unicode="&#x159;" horiz-adv-x="380" 
d="M362 438q-17 5 -33 9t-30 4q-53 0 -82.5 -27t-36.5 -68v-356h-92v525h64l18 -70h9q23 39 53.5 60.5t76.5 21.5q14 0 33 -2.5t38 -8.5zM241 586h-49l-129 187h87l44 -68l28 -71l29 70l49 69h78z" />
    <glyph glyph-name="Sacute" unicode="&#x15a;" horiz-adv-x="581" 
d="M433 184q0 41 -27 65t-68 41.5t-88 33t-88 39.5t-68 62t-27 99q0 85 62.5 137t178.5 52q67 0 123 -10t88 -26l-31 -84q-25 13 -75 23.5t-110 10.5q-68 0 -102 -29t-34 -67q0 -39 27 -63t68 -42.5t88 -35.5t88 -42t68 -61.5t27 -93.5q0 -47 -18 -85t-52 -65t-82 -41.5
t-109 -14.5q-82 0 -138.5 12.5t-85.5 26.5l33 87q25 -13 75.5 -26.5t111.5 -13.5q35 0 65 6.5t52.5 20t35 34.5t12.5 50zM369 870h132v-23l-178 -95h-81z" />
    <glyph glyph-name="sacute" unicode="&#x15b;" horiz-adv-x="499" 
d="M353 147q0 20 -9.5 33.5t-25.5 23t-37 16.5t-44 14q-29 8 -58.5 17.5t-53 26t-38.5 42.5t-15 66q0 78 46.5 116t130.5 38q63 0 106 -12t75 -26l-22 -78q-27 13 -64.5 25.5t-82.5 12.5q-49 0 -73 -16t-24 -58q0 -17 9 -28.5t24 -20t35 -15t42 -12.5q30 -8 60 -18.5t55 -28
t40.5 -44.5t15.5 -68q0 -74 -50 -120.5t-150 -46.5q-64 0 -111.5 13t-79.5 30l26 80q28 -15 72 -30t89 -15q49 0 80.5 17.5t31.5 65.5zM265 720h104v-23l-112 -127h-56z" />
    <glyph glyph-name="Scircumflex" unicode="&#x15c;" horiz-adv-x="581" 
d="M433 184q0 41 -27 65t-68 41.5t-88 33t-88 39.5t-68 62t-27 99q0 85 62.5 137t178.5 52q67 0 123 -10t88 -26l-31 -84q-25 13 -75 23.5t-110 10.5q-68 0 -102 -29t-34 -67q0 -39 27 -63t68 -42.5t88 -35.5t88 -42t68 -61.5t27 -93.5q0 -47 -18 -85t-52 -65t-82 -41.5
t-109 -14.5q-82 0 -138.5 12.5t-85.5 26.5l33 87q25 -13 75.5 -26.5t111.5 -13.5q35 0 65 6.5t52.5 20t35 34.5t12.5 50zM271 870h73l139 -100v-25h-92l-65 47l-20 35l-21 -34l-70 -48h-90v26z" />
    <glyph glyph-name="scircumflex" unicode="&#x15d;" horiz-adv-x="499" 
d="M353 147q0 20 -9.5 33.5t-25.5 23t-37 16.5t-44 14q-29 8 -58.5 17.5t-53 26t-38.5 42.5t-15 66q0 78 46.5 116t130.5 38q63 0 106 -12t75 -26l-22 -78q-27 13 -64.5 25.5t-82.5 12.5q-49 0 -73 -16t-24 -58q0 -17 9 -28.5t24 -20t35 -15t42 -12.5q30 -8 60 -18.5t55 -28
t40.5 -44.5t15.5 -68q0 -74 -50 -120.5t-150 -46.5q-64 0 -111.5 13t-79.5 30l26 80q28 -15 72 -30t89 -15q49 0 80.5 17.5t31.5 65.5zM239 773h41q31 -48 63 -94t62 -93h-80l-45 69l-26 71l-31 -71l-48 -69h-76z" />
    <glyph glyph-name="Scedilla" unicode="&#x15e;" horiz-adv-x="581" 
d="M81 113q25 -13 75.5 -26.5t111.5 -13.5q35 0 65 6.5t52.5 20t35 34.5t12.5 50q0 41 -27 65t-68 41.5t-88 33t-88 39.5t-68 62t-27 99q0 85 62.5 137t178.5 52q67 0 123 -10t88 -26l-31 -84q-25 13 -75 23.5t-110 10.5q-68 0 -102 -29t-34 -67q0 -39 27 -63t68 -42.5
t88 -35.5t88 -42t68 -61.5t27 -93.5q0 -86 -57 -139.5t-159 -63.5l-25 -43q49 -8 72.5 -26t23.5 -51q0 -42 -37 -67.5t-103 -25.5q-13 0 -26.5 1t-27.5 4l9 36q35 -2 55 1t30 10t12.5 15.5t2.5 16.5q0 17 -25.5 26.5t-73.5 14.5l51 85q-75 2 -127 14t-80 25z" />
    <glyph glyph-name="scedilla" unicode="&#x15f;" horiz-adv-x="499" 
d="M80 110q28 -15 72 -30t89 -15q49 0 80.5 17t31.5 65q0 20 -9.5 33.5t-25.5 23t-37 16.5t-44 14q-29 8 -58.5 17.5t-53 26t-38.5 42.5t-15 66q0 78 46.5 116t130.5 38q63 0 106 -12t75 -26l-22 -78q-27 13 -64.5 25.5t-82.5 12.5q-49 0 -73 -16t-24 -58q0 -17 9 -28.5
t24 -20t35 -15t42 -12.5q30 -8 60 -18.5t55 -28t40.5 -44.5t15.5 -68q0 -67 -40.5 -111.5t-123.5 -53.5l-24 -41q49 -8 72.5 -26t23.5 -51q0 -42 -37 -67.5t-103 -25.5q-13 0 -26.5 1t-27.5 4l9 36q35 -2 55 1t30 10t12.5 15.5t2.5 16.5q0 17 -25.5 26.5t-73.5 14.5l50 85
q-54 2 -95 14t-70 28z" />
    <glyph glyph-name="Scaron" unicode="&#x160;" horiz-adv-x="581" 
d="M433 184q0 41 -27 65t-68 41.5t-88 33t-88 39.5t-68 62t-27 99q0 85 62.5 137t178.5 52q67 0 123 -10t88 -26l-31 -84q-25 13 -75 23.5t-110 10.5q-68 0 -102 -29t-34 -67q0 -39 27 -63t68 -42.5t88 -35.5t88 -42t68 -61.5t27 -93.5q0 -47 -18 -85t-52 -65t-82 -41.5
t-109 -14.5q-82 0 -138.5 12.5t-85.5 26.5l33 87q25 -13 75.5 -26.5t111.5 -13.5q35 0 65 6.5t52.5 20t35 34.5t12.5 50zM354 744h-69l-139 101v25h93l64 -49l19 -33l21 32l68 50h89v-26z" />
    <glyph glyph-name="scaron" unicode="&#x161;" horiz-adv-x="499" 
d="M353 147q0 20 -9.5 33.5t-25.5 23t-37 16.5t-44 14q-29 8 -58.5 17.5t-53 26t-38.5 42.5t-15 66q0 78 46.5 116t130.5 38q63 0 106 -12t75 -26l-22 -78q-27 13 -64.5 25.5t-82.5 12.5q-49 0 -73 -16t-24 -58q0 -17 9 -28.5t24 -20t35 -15t42 -12.5q30 -8 60 -18.5t55 -28
t40.5 -44.5t15.5 -68q0 -74 -50 -120.5t-150 -46.5q-64 0 -111.5 13t-79.5 30l26 80q28 -15 72 -30t89 -15q49 0 80.5 17.5t31.5 65.5zM272 586h-49l-129 187h87l44 -68l28 -71l29 70l49 69h78z" />
    <glyph glyph-name="Tcommaaccent" unicode="&#x162;" horiz-adv-x="610" 
d="M591 612h-236v-612h-100v612h-236v88h572v-88zM236 -102q0 22 17.5 36t40.5 14q29 0 50.5 -19t21.5 -59q0 -27 -10 -48t-24 -36t-29.5 -24t-27.5 -13l-29 40q19 8 32.5 23.5t13.5 38.5q-23 -5 -39.5 9t-16.5 38z" />
    <glyph glyph-name="Tcommaaccent" unicode="&#x21a;" horiz-adv-x="610" 
d="M591 612h-236v-612h-100v612h-236v88h572v-88zM236 -102q0 22 17.5 36t40.5 14q29 0 50.5 -19t21.5 -59q0 -27 -10 -48t-24 -36t-29.5 -24t-27.5 -13l-29 40q19 8 32.5 23.5t13.5 38.5q-23 -5 -39.5 9t-16.5 38z" />
    <glyph glyph-name="tcommaaccent" unicode="&#x163;" horiz-adv-x="405" 
d="M24 525h89v106l92 24v-130h158v-78h-158v-268q0 -63 16 -89t55 -26q25 0 45.5 5.5t46.5 14.5l21 -65q-32 -14 -68.5 -23.5t-78.5 -9.5q-70 0 -99.5 38t-29.5 124v299h-89v78zM150 -102q0 22 17.5 36t40.5 14q29 0 50.5 -19t21.5 -59q0 -27 -10 -48t-24 -36t-29.5 -24
t-27.5 -13l-29 40q19 8 32.5 23.5t13.5 38.5q-23 -5 -39.5 9t-16.5 38z" />
    <glyph glyph-name="tcommaaccent" unicode="&#x21b;" horiz-adv-x="405" 
d="M24 525h89v106l92 24v-130h158v-78h-158v-268q0 -63 16 -89t55 -26q25 0 45.5 5.5t46.5 14.5l21 -65q-32 -14 -68.5 -23.5t-78.5 -9.5q-70 0 -99.5 38t-29.5 124v299h-89v78zM150 -102q0 22 17.5 36t40.5 14q29 0 50.5 -19t21.5 -59q0 -27 -10 -48t-24 -36t-29.5 -24
t-27.5 -13l-29 40q19 8 32.5 23.5t13.5 38.5q-23 -5 -39.5 9t-16.5 38z" />
    <glyph glyph-name="Tcaron" unicode="&#x164;" horiz-adv-x="610" 
d="M591 612h-236v-612h-100v612h-236v88h572v-88zM336 744h-69l-139 101v25h93l64 -49l19 -33l21 32l68 50h89v-26z" />
    <glyph glyph-name="tcaron" unicode="&#x165;" horiz-adv-x="405" 
d="M24 525h89v106l92 24v-130h158v-78h-158v-268q0 -63 16 -89t55 -26q25 0 45.5 5.5t46.5 14.5l21 -65q-32 -14 -68.5 -23.5t-78.5 -9.5q-70 0 -99.5 38t-29.5 124v299h-89v78zM366 747q-2 -29 -12.5 -59.5t-24.5 -57.5t-28.5 -48t-24.5 -30l-40 23q19 36 28.5 81t9.5 91
h92z" />
    <glyph glyph-name="Umacron" unicode="&#x16a;" horiz-adv-x="710" 
d="M527 700h94v-457q0 -65 -18.5 -112t-52.5 -78.5t-80.5 -46.5t-103.5 -15q-135 0 -206 58.5t-71 173.5v477h100v-439q0 -102 44.5 -142t131.5 -40q84 0 123 44t39 141v436zM184 826h350v-68h-350v68z" />
    <glyph glyph-name="umacron" unicode="&#x16b;" horiz-adv-x="644" 
d="M180 525v-289q0 -42 5 -74t18 -53.5t35.5 -33t57.5 -11.5q60 0 98 34t58 84v343h92v-376q0 -38 3 -77.5t9 -71.5h-62l-24 87h-10q-26 -45 -72 -73t-115 -28q-46 0 -80.5 11t-58 37.5t-35 70.5t-11.5 110v310h92zM144 666h328v-69h-328v69z" />
    <glyph glyph-name="Ubreve" unicode="&#x16c;" horiz-adv-x="710" 
d="M527 700h94v-457q0 -65 -18.5 -112t-52.5 -78.5t-80.5 -46.5t-103.5 -15q-135 0 -206 58.5t-71 173.5v477h100v-439q0 -102 44.5 -142t131.5 -40q84 0 123 44t39 141v436zM213 872q19 -32 58 -49t90 -17q53 0 89.5 19.5t53.5 46.5l44 -23q-10 -28 -28.5 -50t-43.5 -37.5
t-55 -23.5t-61 -8q-29 0 -58 6.5t-55 20.5t-47.5 35t-34.5 51z" />
    <glyph glyph-name="ubreve" unicode="&#x16d;" horiz-adv-x="644" 
d="M180 525v-289q0 -42 5 -74t18 -53.5t35.5 -33t57.5 -11.5q60 0 98 34t58 84v343h92v-376q0 -38 3 -77.5t9 -71.5h-62l-24 87h-10q-26 -45 -72 -73t-115 -28q-46 0 -80.5 11t-58 37.5t-35 70.5t-11.5 110v310h92zM195 759q21 -37 56.5 -56t75.5 -19q39 0 72.5 18.5
t53.5 56.5l45 -19q-4 -24 -18.5 -47.5t-37.5 -41.5t-53 -29.5t-63 -11.5q-65 0 -114.5 34t-66.5 91z" />
    <glyph glyph-name="Uring" unicode="&#x16e;" horiz-adv-x="710" 
d="M527 700h94v-457q0 -65 -18.5 -112t-52.5 -78.5t-80.5 -46.5t-103.5 -15q-135 0 -206 58.5t-71 173.5v477h100v-439q0 -102 44.5 -142t131.5 -40q84 0 123 44t39 141v436zM243 769q0 37 27 61.5t91 24.5q58 0 88.5 -22t30.5 -64q0 -36 -29 -60t-90 -24q-60 0 -89 23
t-29 61zM313 769q0 -15 11 -26t37 -11q49 0 49 37q0 18 -12 28.5t-37 10.5t-36.5 -10.5t-11.5 -28.5z" />
    <glyph glyph-name="uring" unicode="&#x16f;" horiz-adv-x="644" 
d="M180 525v-289q0 -42 5 -74t18 -53.5t35.5 -33t57.5 -11.5q60 0 98 34t58 84v343h92v-376q0 -38 3 -77.5t9 -71.5h-62l-24 87h-10q-26 -45 -72 -73t-115 -28q-46 0 -80.5 11t-58 37.5t-35 70.5t-11.5 110v310h92zM209 683q0 42 29 68.5t80 26.5q48 0 80.5 -23.5
t32.5 -71.5q0 -20 -8.5 -37t-23.5 -29.5t-36 -20t-45 -7.5q-48 0 -78.5 24.5t-30.5 69.5zM266 683q0 -20 16.5 -32.5t35.5 -12.5q23 0 39.5 11t16.5 34t-17 34.5t-39 11.5q-20 0 -36 -11t-16 -35z" />
    <glyph glyph-name="Uhungarumlaut" unicode="&#x170;" horiz-adv-x="710" 
d="M527 700h94v-457q0 -65 -18.5 -112t-52.5 -78.5t-80.5 -46.5t-103.5 -15q-135 0 -206 58.5t-71 173.5v477h100v-439q0 -102 44.5 -142t131.5 -40q84 0 123 44t39 141v436zM296 850h108v-16l-109 -93h-68zM479 850h115v-16l-157 -93h-69z" />
    <glyph glyph-name="uhungarumlaut" unicode="&#x171;" horiz-adv-x="644" 
d="M180 525v-289q0 -42 5 -74t18 -53.5t35.5 -33t57.5 -11.5q60 0 98 34t58 84v343h92v-376q0 -38 3 -77.5t9 -71.5h-62l-24 87h-10q-26 -45 -72 -73t-115 -28q-46 0 -80.5 11t-58 37.5t-35 70.5t-11.5 110v310h92zM244 739h90v-12l-80 -117h-49zM419 739h101v-11l-132 -118
h-51z" />
    <glyph glyph-name="Uogonek" unicode="&#x172;" horiz-adv-x="708" 
d="M526 700h94v-457q0 -93 -37 -149.5t-101 -82.5q-32 -16 -55 -39t-22 -64q1 -23 16 -39t44 -16q10 0 22 2.5t25 7.5l12 -46q-17 -12 -47 -18.5t-57 -6.5q-51 0 -80.5 25.5t-29.5 68.5q0 36 16.5 62t45.5 43h-7q-135 0 -206 58.5t-71 173.5v477h100v-439q0 -102 44.5 -142
t131.5 -40q84 0 123 44t39 141v436z" />
    <glyph glyph-name="uogonek" unicode="&#x173;" horiz-adv-x="644" 
d="M180 525v-289q0 -42 5 -74t18 -53.5t35.5 -33t57.5 -11.5q60 0 98 34t58 84v343h92v-376q0 -38 3 -77.5t9 -71.5h-23q-32 -17 -47.5 -39t-14.5 -54q1 -23 16 -40t45 -17q10 0 21.5 1.5t23.5 6.5l11 -42q-18 -11 -45.5 -17.5t-52.5 -6.5q-53 0 -83.5 24.5t-30.5 65.5
q0 40 33 70.5t84 48.5l-23 86h-10q-26 -45 -72 -73t-115 -28q-46 0 -80.5 11t-58 37.5t-35 70.5t-11.5 110v310h92z" />
    <glyph glyph-name="Ydieresis" unicode="&#x178;" horiz-adv-x="617" 
d="M261 274l-254 426h117l175 -297l17 -64h2l19 66l167 295h106l-249 -425v-275h-100v274zM142 795q0 23 16.5 36t45.5 13q28 0 45 -13t17 -36q0 -22 -17 -35.5t-45 -13.5q-29 0 -45.5 13.5t-16.5 35.5zM356 795q0 23 16.5 36t44.5 13q29 0 46 -13t17 -36q0 -22 -17 -35.5
t-46 -13.5q-28 0 -44.5 13.5t-16.5 35.5z" />
    <glyph glyph-name="Zacute" unicode="&#x179;" horiz-adv-x="596" 
d="M39 88l377 484l49 40h-426v88h518v-88l-380 -487l-47 -37h427v-88h-518v88zM353 870h132v-23l-178 -95h-81z" />
    <glyph glyph-name="zacute" unicode="&#x17a;" horiz-adv-x="515" 
d="M48 79l259 316l70 52h-329v78h413v-79l-262 -319l-70 -49h332v-78h-413v79zM260 720h104v-23l-112 -127h-56z" />
    <glyph glyph-name="Zdotaccent" unicode="&#x17b;" horiz-adv-x="596" 
d="M39 88l377 484l49 40h-426v88h518v-88l-380 -487l-47 -37h427v-88h-518v88zM227 798q0 22 19 38t53 16t53.5 -16t19.5 -38q0 -24 -19.5 -39.5t-53.5 -15.5t-53 15.5t-19 39.5z" />
    <glyph glyph-name="zdotaccent" unicode="&#x17c;" horiz-adv-x="515" 
d="M48 79l259 316l70 52h-329v78h413v-79l-262 -319l-70 -49h332v-78h-413v79zM191 650q0 23 18 41.5t47 18.5t48 -18.5t19 -41.5t-19 -40.5t-48 -17.5t-47 17.5t-18 40.5z" />
    <glyph glyph-name="Zcaron" unicode="&#x17d;" horiz-adv-x="596" 
d="M39 88l377 484l49 40h-426v88h518v-88l-380 -487l-47 -37h427v-88h-518v88zM316 744h-69l-139 101v25h93l64 -49l19 -33l21 32l68 50h89v-26z" />
    <glyph glyph-name="zcaron" unicode="&#x17e;" horiz-adv-x="515" 
d="M48 79l259 316l70 52h-329v78h413v-79l-262 -319l-70 -49h332v-78h-413v79zM274 586h-49l-129 187h87l44 -68l28 -71l29 70l49 69h78z" />
    <glyph glyph-name="longs" unicode="&#x17f;" horiz-adv-x="331" 
d="M26 525h90v33q0 34 9 62.5t28.5 48.5t51.5 31.5t77 11.5q19 0 34.5 -1t29.5 -3.5t28.5 -6.5t31.5 -10l-22 -75q-26 11 -49 14.5t-42 3.5q-23 0 -39 -4.5t-26.5 -15.5t-15 -31.5t-4.5 -53.5v-529h-92v447h-90v78z" />
    <glyph glyph-name="florin" unicode="&#x192;" 
d="M351 445l-88 -479q-7 -37 -19 -68.5t-32.5 -55t-50.5 -37t-72 -13.5q-30 0 -66.5 8t-62.5 17l21 76q26 -10 48 -15.5t50 -5.5q41 0 62.5 31t34.5 105l76 437h-91v80h105l9 42q6 37 17.5 64.5t30.5 45.5t47 27t69 9q36 0 72.5 -9t64.5 -20l-26 -73q-26 10 -51.5 16
t-51.5 6q-39 0 -54 -21t-24 -73l-4 -14h131v-80h-145z" />
    <glyph glyph-name="uni01F4" unicode="&#x1f4;" horiz-adv-x="668" 
d="M348 353h262v-309q-18 -14 -43 -24.5t-53.5 -17.5t-58.5 -11t-59 -4q-72 0 -133.5 21.5t-107 66.5t-71.5 113.5t-26 161.5q0 97 31.5 166t81.5 113t111.5 64t122.5 20q66 0 109.5 -7.5t72.5 -18.5l-24 -85q-52 23 -150 23q-45 0 -89.5 -14t-80 -46.5t-57.5 -85
t-22 -129.5q0 -71 18.5 -123t51.5 -86t78 -50t98 -16q33 0 63.5 6.5t53.5 18.5v177l-179 18v58zM462 870h132v-23l-178 -95h-81z" />
    <glyph glyph-name="uni01F5" unicode="&#x1f5;" horiz-adv-x="627" 
d="M537 -3q0 -103 -60.5 -153.5t-177.5 -50.5q-68 0 -110 8t-72 22l22 83q13 -6 30 -12.5t36 -11.5t38.5 -8t37.5 -3q49 0 81 8.5t51 26.5t26 46t7 67v37h-11q-16 -26 -56 -42t-97 -16q-114 0 -168 61.5t-54 198.5q0 135 70 208t208 73q66 0 113.5 -8t85.5 -21v-513zM302 76
q61 0 95.5 31t47.5 81v258q-23 7 -53 11t-68 4q-78 0 -122 -49.5t-44 -151.5q0 -88 32.5 -136t111.5 -48zM339 720h104v-23l-112 -127h-56z" />
    <glyph glyph-name="Scommaaccent" unicode="&#x218;" horiz-adv-x="581" 
d="M433 184q0 41 -27 65t-68 41.5t-88 33t-88 39.5t-68 62t-27 99q0 85 62.5 137t178.5 52q67 0 123 -10t88 -26l-31 -84q-25 13 -75 23.5t-110 10.5q-68 0 -102 -29t-34 -67q0 -39 27 -63t68 -42.5t88 -35.5t88 -42t68 -61.5t27 -93.5q0 -47 -18 -85t-52 -65t-82 -41.5
t-109 -14.5q-82 0 -138.5 12.5t-85.5 26.5l33 87q25 -13 75.5 -26.5t111.5 -13.5q35 0 65 6.5t52.5 20t35 34.5t12.5 50zM221 -102q0 22 17.5 36t40.5 14q29 0 50.5 -19t21.5 -59q0 -27 -10 -48t-24 -36t-29.5 -24t-27.5 -13l-29 40q19 8 32.5 23.5t13.5 38.5
q-23 -5 -39.5 9t-16.5 38z" />
    <glyph glyph-name="scommaaccent" unicode="&#x219;" horiz-adv-x="499" 
d="M353 147q0 20 -9.5 33.5t-25.5 23t-37 16.5t-44 14q-29 8 -58.5 17.5t-53 26t-38.5 42.5t-15 66q0 78 46.5 116t130.5 38q63 0 106 -12t75 -26l-22 -78q-27 13 -64.5 25.5t-82.5 12.5q-49 0 -73 -16t-24 -58q0 -17 9 -28.5t24 -20t35 -15t42 -12.5q30 -8 60 -18.5t55 -28
t40.5 -44.5t15.5 -68q0 -74 -50 -120.5t-150 -46.5q-64 0 -111.5 13t-79.5 30l26 80q28 -15 72 -30t89 -15q49 0 80.5 17.5t31.5 65.5zM181 -102q0 22 17.5 36t40.5 14q29 0 50.5 -19t21.5 -59q0 -27 -10 -48t-24 -36t-29.5 -24t-27.5 -13l-29 40q19 8 32.5 23.5t13.5 38.5
q-23 -5 -39.5 9t-16.5 38z" />
    <glyph glyph-name="uni0237" unicode="&#x237;" horiz-adv-x="312" 
d="M112 525h92v-543q0 -97 -36.5 -144.5t-117.5 -47.5h-17.5t-20.5 2v76q33 -1 52.5 8t30 27.5t14 46t3.5 65.5v510z" />
    <glyph glyph-name="afii57929" unicode="&#x2bc;" horiz-adv-x="217" 
d="M44 655q0 24 16.5 38.5t42.5 14.5q32 0 51.5 -19t19.5 -56q0 -35 -11 -60t-26.5 -42t-32.5 -26.5t-29 -13.5l-28 41q24 11 39.5 28.5t14.5 43.5q-26 -5 -41.5 10t-15.5 41z" />
    <glyph glyph-name="circumflex" unicode="&#x2c6;" horiz-adv-x="441" 
d="M209 773h41q31 -48 63 -94t62 -93h-80l-45 69l-26 71l-31 -71l-48 -69h-76z" />
    <glyph glyph-name="caron" unicode="&#x2c7;" horiz-adv-x="450" 
d="M247 586h-49l-129 187h87l44 -68l28 -71l29 70l49 69h78z" />
    <glyph glyph-name="breve" unicode="&#x2d8;" horiz-adv-x="483" 
d="M117 759q21 -37 56.5 -56t75.5 -19q39 0 72.5 18.5t53.5 56.5l45 -19q-4 -24 -18.5 -47.5t-37.5 -41.5t-53 -29.5t-63 -11.5q-65 0 -114.5 34t-66.5 91z" />
    <glyph glyph-name="dotaccent" unicode="&#x2d9;" horiz-adv-x="252" 
d="M60 650q0 23 18 41.5t47 18.5t48 -18.5t19 -41.5t-19 -40.5t-48 -17.5t-47 17.5t-18 40.5z" />
    <glyph glyph-name="ring" unicode="&#x2da;" horiz-adv-x="353" 
d="M67 683q0 42 29 68.5t80 26.5q48 0 80.5 -23.5t32.5 -71.5q0 -20 -8.5 -37t-23.5 -29.5t-36 -20t-45 -7.5q-48 0 -78.5 24.5t-30.5 69.5zM124 683q0 -20 16.5 -32.5t35.5 -12.5q23 0 39.5 11t16.5 34t-17 34.5t-39 11.5q-20 0 -36 -11t-16 -35z" />
    <glyph glyph-name="ogonek" unicode="&#x2db;" horiz-adv-x="345" 
d="M235 0q-34 -17 -54 -39.5t-19 -52.5q1 -23 16 -39t44 -16q10 0 22 2.5t25 7.5l12 -46q-17 -12 -47 -18.5t-57 -6.5q-51 0 -80.5 24.5t-29.5 67.5q0 40 31.5 69.5t84.5 46.5h52z" />
    <glyph glyph-name="tilde" unicode="&#x2dc;" horiz-adv-x="450" 
d="M67 696q32 35 58 47.5t49 12.5q18 0 34.5 -6.5t33 -15t33 -15t35.5 -6.5q25 0 54 24l22 -48q-27 -28 -50.5 -39.5t-43.5 -11.5q-19 0 -36 7t-33.5 15t-33.5 15t-36 7q-16 0 -31.5 -6t-34.5 -24z" />
    <glyph glyph-name="hungarumlaut" unicode="&#x2dd;" horiz-adv-x="445" 
d="M106 739h90v-12l-80 -117h-49zM281 739h101v-11l-132 -118h-51z" />
    <glyph glyph-name="acutecomb" unicode="&#x301;" horiz-adv-x="2" 
d="M-207 720h104v-23l-112 -127h-56z" />
    <glyph glyph-name="uni0394" unicode="&#x394;" horiz-adv-x="625" 
d="M16 0v45l276 665h43l279 -665v-45h-598zM126 86h373l-161 379l-27 100h-2l-30 -101z" />
    <glyph glyph-name="uni0394" unicode="&#x2206;" horiz-adv-x="625" 
d="M16 0v45l276 665h43l279 -665v-45h-598zM126 86h373l-161 379l-27 100h-2l-30 -101z" />
    <glyph glyph-name="uni03A9" unicode="&#x3a9;" horiz-adv-x="875" 
d="M81 82h125l101 -11v27l-57 9q-35 15 -65.5 40.5t-53.5 60t-36.5 78t-13.5 94.5q0 76 25 137.5t71.5 105t112.5 67t147 23.5q85 0 151.5 -25t112.5 -70t69.5 -106.5t23.5 -134.5q0 -53 -15 -96.5t-39 -77t-53.5 -57t-58.5 -38.5l-62 -10v-27l103 11h126v-82h-317v148
q32 5 68.5 19.5t68 41.5t52.5 69t21 103q0 45 -14 88.5t-44.5 78t-78.5 56t-115 21.5q-121 0 -185 -62.5t-64 -184.5q0 -59 19.5 -101t50 -69t67.5 -41.5t72 -18.5v-148h-315v82z" />
    <glyph glyph-name="uni03A9" unicode="&#x2126;" horiz-adv-x="875" 
d="M81 82h125l101 -11v27l-57 9q-35 15 -65.5 40.5t-53.5 60t-36.5 78t-13.5 94.5q0 76 25 137.5t71.5 105t112.5 67t147 23.5q85 0 151.5 -25t112.5 -70t69.5 -106.5t23.5 -134.5q0 -53 -15 -96.5t-39 -77t-53.5 -57t-58.5 -38.5l-62 -10v-27l103 11h126v-82h-317v148
q32 5 68.5 19.5t68 41.5t52.5 69t21 103q0 45 -14 88.5t-44.5 78t-78.5 56t-115 21.5q-121 0 -185 -62.5t-64 -184.5q0 -59 19.5 -101t50 -69t67.5 -41.5t72 -18.5v-148h-315v82z" />
    <glyph glyph-name="pi" unicode="&#x3c0;" horiz-adv-x="770" 
d="M601 131q0 -32 11 -44.5t31 -12.5q11 0 24 1t27 4l7 -65q-17 -7 -42.5 -12.5t-56.5 -5.5q-53 0 -73 29.5t-20 81.5v340h-223v-447h-92v447h-22q-23 0 -38 -12.5t-32 -35.5l-58 31q22 45 54 70t91 25h509v-78h-97v-316z" />
    <glyph glyph-name="afii10023" unicode="&#x401;" horiz-adv-x="585" 
d="M89 700h423v-86h-323v-213h295v-86h-295v-229h328v-86h-428v700zM125 795q0 23 16.5 36t45.5 13q28 0 45 -13t17 -36q0 -22 -17 -35.5t-45 -13.5q-29 0 -45.5 13.5t-16.5 35.5zM339 795q0 23 16.5 36t44.5 13q29 0 46 -13t17 -36q0 -22 -17 -35.5t-46 -13.5
q-28 0 -44.5 13.5t-16.5 35.5z" />
    <glyph glyph-name="afii10051" unicode="&#x402;" horiz-adv-x="799" 
d="M355 0h-100v612h-236v88h572v-88h-236v-192q14 4 52 12.5t99 8.5q43 0 85 -10t75.5 -34t54 -65t20.5 -104q0 -120 -66.5 -178t-190.5 -58q-36 0 -52 1t-24 3v87q13 -2 30.5 -2.5t47.5 -0.5q72 0 110.5 34.5t38.5 106.5q0 40 -12.5 66t-34.5 41t-51.5 21t-63.5 6
q-18 0 -36.5 -2.5t-34.5 -5.5t-28.5 -6.5t-18.5 -5.5v-335z" />
    <glyph glyph-name="afii10052" unicode="&#x403;" horiz-adv-x="486" 
d="M504 612h-315v-612h-100v700h415v-88zM341 870h132v-23l-178 -95h-81z" />
    <glyph glyph-name="afii10053" unicode="&#x404;" horiz-adv-x="637" 
d="M582 30q-33 -24 -83 -33.5t-107 -9.5q-67 0 -127.5 21.5t-106.5 66t-73 113t-27 162.5q0 98 30 167t78 112.5t108 63.5t119 20q66 0 107.5 -7t70.5 -18l-23 -84q-49 23 -147 23q-41 0 -80 -12t-71 -39t-54.5 -69.5t-29.5 -102.5h329v-86h-331q4 -60 24.5 -106t53.5 -77
t76.5 -46.5t94.5 -15.5q49 0 85 9t61 23z" />
    <glyph glyph-name="afii10054" unicode="&#x405;" horiz-adv-x="581" 
d="M433 184q0 41 -27 65t-68 41.5t-88 33t-88 39.5t-68 62t-27 99q0 85 62.5 137t178.5 52q67 0 123 -10t88 -26l-31 -84q-25 13 -75 23.5t-110 10.5q-68 0 -102 -29t-34 -67q0 -39 27 -63t68 -42.5t88 -35.5t88 -42t68 -61.5t27 -93.5q0 -47 -18 -85t-52 -65t-82 -41.5
t-109 -14.5q-82 0 -138.5 12.5t-85.5 26.5l33 87q25 -13 75.5 -26.5t111.5 -13.5q35 0 65 6.5t52.5 20t35 34.5t12.5 50z" />
    <glyph glyph-name="afii10055" unicode="&#x406;" horiz-adv-x="398" 
d="M149 634h-80v66h260v-66h-80v-568h80v-66h-260v66h80v568z" />
    <glyph glyph-name="afii10056" unicode="&#x407;" horiz-adv-x="398" 
d="M74 793q0 24 16 37.5t40 13.5q23 0 39 -13.5t16 -37.5q0 -23 -16 -37t-39 -14q-24 0 -40 14t-16 37zM214 793q0 24 16 37.5t40 13.5t40 -13.5t16 -37.5q0 -23 -16 -37t-40 -14t-40 14t-16 37zM149 634h-80v66h260v-66h-80v-568h80v-66h-260v66h80v568z" />
    <glyph glyph-name="afii10057" unicode="&#x408;" horiz-adv-x="325" 
d="M125 700h100v-540q0 -78 -40.5 -124t-119.5 -46q-10 0 -23.5 1t-27.5 3.5t-27 5.5t-22 7l19 83q28 -12 67 -12q45 0 59.5 29t14.5 80v513z" />
    <glyph glyph-name="afii10058" unicode="&#x409;" horiz-adv-x="1014" 
d="M594 700v-267q5 1 17.5 2.5t28 2.5t31.5 2t29 1q52 0 102 -10t89.5 -34t64 -65.5t24.5 -104.5q0 -60 -23.5 -104.5t-64 -73.5t-95.5 -43.5t-119 -14.5q-15 0 -37.5 0.5t-48 2.5t-51 5t-47.5 8v605h-220q-5 -99 -11.5 -180t-16.5 -146.5t-23.5 -115.5t-33.5 -87
q-26 -48 -60 -68t-71 -20q-21 0 -34.5 2.5t-27.5 7.5l13 84q12 -3 24 -3t24.5 4.5t24.5 15t23 29.5q15 26 28 70t23 112t16.5 162.5t9.5 220.5h412zM594 83q14 -4 41 -5t54 -1q37 0 70.5 8.5t59 26.5t40.5 45t15 65q0 40 -16 66t-42.5 41t-60.5 20.5t-69 5.5q-9 0 -23 -1
t-27.5 -2t-25 -3t-16.5 -3v-263z" />
    <glyph glyph-name="afii10059" unicode="&#x40a;" horiz-adv-x="1064" 
d="M189 700v-285h355v285h100v-284q6 1 18.5 2.5t28 2.5t31.5 2t29 1q52 0 102 -8.5t89.5 -31t63.5 -62.5t24 -103q0 -60 -23 -103t-63.5 -71t-96 -41t-119.5 -13q-15 0 -37.5 1t-48 2.5t-51 4.5t-47.5 7v321h-355v-327h-100v700h100zM644 83q14 -3 41.5 -4.5t53.5 -1.5
q39 0 72.5 7t58.5 23t39.5 42t14.5 63q0 40 -15.5 65t-41.5 38.5t-60 18t-71 4.5q-9 0 -23 -1t-27.5 -2t-25 -3t-16.5 -3v-246z" />
    <glyph glyph-name="afii10060" unicode="&#x40b;" horiz-adv-x="821" 
d="M355 0h-100v612h-236v88h572v-88h-236v-216q29 15 77.5 30t110.5 15q46 0 84.5 -10t66.5 -33t43.5 -61t15.5 -93v-244h-100v222q0 133 -133 133q-51 0 -94.5 -12t-70.5 -33v-310z" />
    <glyph glyph-name="afii10061" unicode="&#x40c;" horiz-adv-x="669" 
d="M238 318h-49v-318h-100v700h100v-322l46 14l252 308h114l-252 -300l-47 -34l55 -40l278 -326h-126zM367 870h132v-23l-178 -95h-81z" />
    <glyph glyph-name="afii10062" unicode="&#x40e;" horiz-adv-x="608" 
d="M311 340l27 -89h6l21 92l142 357h102l-196 -462q-29 -67 -51 -113.5t-45.5 -75.5t-50.5 -42t-66 -13q-36 0 -57.5 5.5t-41.5 17.5l29 82q21 -12 39.5 -14.5t34.5 -2.5q29 0 49.5 25.5t36.5 76.5l-285 516h115zM222 871q5 -36 30.5 -54.5t67.5 -18.5t67.5 18.5t30.5 53.5
l84 -18q-13 -55 -57 -86t-126 -31q-79 0 -129.5 27t-60.5 88z" />
    <glyph glyph-name="afii10145" unicode="&#x40f;" horiz-adv-x="719" 
d="M189 700v-612h341v612h100v-700h-220l-16 -178h-63l-22 178h-220v700h100z" />
    <glyph glyph-name="afii10017" unicode="&#x410;" horiz-adv-x="645" 
d="M457 183h-277l-74 -183h-98l288 710h52l289 -710h-104zM210 267h218l-81 199l-27 107h-2l-27 -109z" />
    <glyph glyph-name="afii10018" unicode="&#x411;" horiz-adv-x="606" 
d="M89 700h424v-88h-324v-190q18 3 44.5 6t52.5 3q56 0 106.5 -10t89 -34t61.5 -64t23 -100t-23.5 -103.5t-62.5 -72t-91 -42.5t-109 -14q-18 0 -42.5 0.5t-50.5 2.5t-51.5 5t-46.5 8v693zM292 77q34 0 64.5 8t53.5 24.5t36.5 41.5t13.5 59q0 44 -15 70.5t-40.5 41t-59 19
t-69.5 4.5q-10 0 -22.5 -1t-25.5 -2t-23.5 -3t-15.5 -3v-253q7 -2 19 -3t26 -2t29 -1h29z" />
    <glyph glyph-name="afii10019" unicode="&#x412;" horiz-adv-x="641" 
d="M559 538q0 -26 -8.5 -51.5t-26 -48t-44.5 -39.5t-64 -25v-4q32 -4 62 -16t53 -33t37 -51t14 -71q0 -54 -25 -93.5t-66 -65t-92.5 -37.5t-103.5 -12q-18 0 -44 0.5t-54.5 2t-57 4t-50.5 7.5v689q41 7 96 11t118 4q43 0 88.5 -7.5t82.5 -26.5t61 -52t24 -85zM187 82
q7 -2 21 -3t30.5 -2t33 -1.5t30.5 -0.5q34 0 65.5 7t55.5 22t38.5 38t14.5 55q0 40 -17.5 63.5t-45.5 36t-63 16t-69 3.5h-94v-234zM242 394q19 0 44 1.5t42 3.5q25 7 47.5 17.5t39.5 25t27 34t10 44.5q0 34 -13.5 54.5t-35.5 31.5t-50 15t-57 4q-35 0 -64.5 -1.5
t-44.5 -3.5v-226h55z" />
    <glyph glyph-name="afii10020" unicode="&#x413;" horiz-adv-x="486" 
d="M504 612h-315v-612h-100v700h415v-88z" />
    <glyph glyph-name="afii10021" unicode="&#x414;" horiz-adv-x="736" 
d="M708 -128h-69l-17 128h-532l-16 -128h-69v216h78q9 11 27.5 50.5t37 113t31.5 184.5t12 264h417v-612h100v-216zM508 88v524h-225q-4 -106 -12.5 -189.5t-21 -147.5t-28 -110t-32.5 -77h319z" />
    <glyph glyph-name="afii10022" unicode="&#x415;" horiz-adv-x="585" 
d="M89 700h423v-86h-323v-213h295v-86h-295v-229h328v-86h-428v700z" />
    <glyph glyph-name="afii10024" unicode="&#x416;" horiz-adv-x="888" 
d="M392 700h94v-322l46 14l213 308h111l-216 -304l-45 -33l56 -41l239 -322h-121l-234 320h-49v-320h-94v332l-46 -14l-233 -318h-115l236 312l53 38l-51 36l-223 314h116l214 -310h49v310z" />
    <glyph glyph-name="afii10025" unicode="&#x417;" horiz-adv-x="589" 
d="M149 327v78h17h23.5t30 1t30 1.5t23.5 2.5q54 7 92 34.5t38 73.5q0 31 -11.5 51.5t-32 33t-47.5 18t-57 5.5q-58 0 -101 -9t-66 -20l-27 80q10 6 31 12t48.5 11t61 8.5t68.5 3.5q44 0 87 -8.5t76.5 -28.5t54.5 -53t21 -83t-35.5 -95t-107.5 -65v-4q77 -11 121.5 -53.5
t44.5 -114.5q0 -57 -25 -98.5t-65.5 -68.5t-92 -40t-105.5 -13q-72 0 -121 8.5t-79 20.5l25 86q26 -11 71.5 -20t111.5 -9q31 0 62 8t56 24t40.5 40.5t15.5 58.5q0 60 -46.5 88t-129.5 33q-13 1 -23 1.5t-24 0.5h-54z" />
    <glyph glyph-name="afii10026" unicode="&#x418;" horiz-adv-x="744" 
d="M555 463l6 77h-4l-48 -79l-359 -461h-61v700h100v-466l-9 -76h5l50 79l358 463h62v-700h-100v463z" />
    <glyph glyph-name="afii10027" unicode="&#x419;" horiz-adv-x="744" 
d="M555 463l6 77h-4l-48 -79l-359 -461h-61v700h100v-466l-9 -76h5l50 79l358 463h62v-700h-100v463zM283 871q5 -36 30.5 -54.5t67.5 -18.5t67.5 18.5t30.5 53.5l84 -18q-13 -55 -57 -86t-126 -31q-79 0 -129.5 27t-60.5 88z" />
    <glyph glyph-name="afii10028" unicode="&#x41a;" horiz-adv-x="669" 
d="M238 318h-49v-318h-100v700h100v-322l46 14l252 308h114l-252 -300l-47 -34l55 -40l278 -326h-126z" />
    <glyph glyph-name="afii10029" unicode="&#x41b;" horiz-adv-x="683" 
d="M494 612h-220q-5 -99 -11.5 -180t-16.5 -146.5t-23.5 -115.5t-33.5 -87q-26 -48 -60 -68t-71 -20q-21 0 -34.5 2.5t-27.5 7.5l13 84q12 -3 24 -3t24.5 4.5t24.5 15t23 29.5q15 26 28 70t23 112t16.5 162.5t9.5 220.5h412v-700h-100v612z" />
    <glyph glyph-name="afii10030" unicode="&#x41c;" horiz-adv-x="868" 
d="M679 451l11 112h-4l-43 -97l-195 -310h-30l-205 311l-41 95h-5l16 -110v-452h-94v700h75l237 -357l37 -76h2l35 78l225 355h79v-700h-100v451z" />
    <glyph glyph-name="afii10031" unicode="&#x41d;" horiz-adv-x="733" 
d="M544 313h-355v-313h-100v700h100v-299h355v299h100v-700h-100v313z" />
    <glyph glyph-name="afii10032" unicode="&#x41e;" horiz-adv-x="747" 
d="M58 350q0 86 21.5 153.5t62 114t99 71t132.5 24.5q79 0 138.5 -26.5t99 -74t59 -114.5t19.5 -148q0 -86 -21.5 -153.5t-62.5 -114t-99.5 -71t-132.5 -24.5q-80 0 -139 26.5t-98 74t-58.5 114.5t-19.5 148zM164 350q0 -57 12.5 -107t38 -88t65 -60t93.5 -22q97 0 153.5 67
t56.5 210q0 56 -12.5 106t-38 88t-65 60.5t-94.5 22.5q-96 0 -152.5 -68t-56.5 -209z" />
    <glyph glyph-name="afii10033" unicode="&#x41f;" horiz-adv-x="719" 
d="M530 612h-341v-612h-100v700h541v-700h-100v612z" />
    <glyph glyph-name="afii10034" unicode="&#x420;" horiz-adv-x="614" 
d="M89 693q42 9 91.5 12.5t97.5 3.5q51 0 103.5 -9t95.5 -33t70.5 -66.5t27.5 -109.5q0 -63 -25 -107.5t-66.5 -72.5t-95 -41t-110.5 -13q-6 0 -18.5 0.5t-26 1t-26 1.5t-18.5 2v-262h-100v693zM281 623q-27 0 -52.5 -1t-39.5 -5v-269q5 -2 16.5 -2.5t24 -1.5t24 -1h17.5
q36 0 71 5.5t63.5 21.5t46 45t17.5 75q0 40 -17 66t-44 41t-60.5 20.5t-66.5 5.5z" />
    <glyph glyph-name="afii10035" unicode="&#x421;" horiz-adv-x="624" 
d="M584 30q-33 -24 -84 -33.5t-108 -9.5q-67 0 -127.5 21.5t-106.5 66t-73 113t-27 162.5q0 98 30 167t78 112.5t108 63.5t119 20q66 0 108 -7t71 -18l-22 -86q-49 23 -149 23q-45 0 -87.5 -14.5t-76 -47t-53.5 -85t-20 -128.5q0 -68 19 -119.5t52.5 -86t79 -52t99.5 -17.5
q49 0 85 9t61 23z" />
    <glyph glyph-name="afii10036" unicode="&#x422;" horiz-adv-x="610" 
d="M591 612h-236v-612h-100v612h-236v88h572v-88z" />
    <glyph glyph-name="afii10037" unicode="&#x423;" horiz-adv-x="608" 
d="M311 340l27 -89h6l21 92l142 357h102l-196 -462q-29 -67 -51 -113.5t-45.5 -75.5t-50.5 -42t-66 -13q-36 0 -57.5 5.5t-41.5 17.5l29 82q21 -12 39.5 -14.5t34.5 -2.5q29 0 49.5 25.5t36.5 76.5l-285 516h115z" />
    <glyph glyph-name="afii10038" unicode="&#x424;" horiz-adv-x="857" 
d="M380 77q-20 -3 -43.5 -4t-45.5 -1q-52 0 -97 17t-78.5 51.5t-53 86.5t-19.5 123q0 67 19.5 120.5t55 91t85 57.5t109.5 20q14 0 35 -1t33 -4v86h96v-89q20 5 46 6.5t43 1.5q52 0 97.5 -18t79 -53.5t52.5 -87.5t19 -120q0 -70 -21.5 -124t-58 -90.5t-85 -55t-102.5 -18.5
q-12 0 -34.5 1.5t-35.5 5.5v-99h-96v97zM550 559q-15 0 -38.5 -1t-37.5 -5v-398q11 -2 28 -2.5t33 -0.5q36 0 68 13t56 38.5t38 64.5t14 92q0 44 -11.5 80.5t-32.5 63t-51 41t-66 14.5zM310 152q11 0 34 0.5t38 5.5v397q-13 2 -31 3t-34 1q-36 0 -67 -13t-54.5 -39.5
t-37 -65.5t-13.5 -91q0 -45 12 -81.5t34 -62.5t52.5 -40t66.5 -14z" />
    <glyph glyph-name="afii10039" unicode="&#x425;" horiz-adv-x="678" 
d="M280 356l-231 344h119l151 -230l27 -58l26 58l158 230h110l-238 -337l249 -363h-117l-167 244l-31 61l-28 -61l-171 -244h-110z" />
    <glyph glyph-name="afii10040" unicode="&#x426;" horiz-adv-x="752" 
d="M723 -128h-69l-16 128h-549v700h100v-612h333v612h100v-612h101v-216z" />
    <glyph glyph-name="afii10041" unicode="&#x427;" horiz-adv-x="663" 
d="M176 700v-221q0 -67 32 -103.5t101 -36.5q51 0 94.5 12t70.5 32v317h100v-700h-100v298q-29 -16 -77.5 -30.5t-111.5 -14.5q-47 0 -85.5 11t-66 36t-42.5 63.5t-15 94.5v242h100z" />
    <glyph glyph-name="afii10042" unicode="&#x428;" horiz-adv-x="959" 
d="M89 0v700h100v-612h241v612h100v-612h240v612h100v-700h-781z" />
    <glyph glyph-name="afii10043" unicode="&#x429;" horiz-adv-x="1000" 
d="M89 0v700h100v-612h240v612h100v-612h240v612h100v-612h102v-216h-69l-16 128h-797z" />
    <glyph glyph-name="afii10044" unicode="&#x42a;" horiz-adv-x="694" 
d="M174 612h-176v88h276v-267q5 1 17.5 2.5t28.5 2.5l32 2t29 1q51 0 101 -10t89.5 -34t64 -65.5t24.5 -104.5q0 -59 -23 -103.5t-63.5 -74t-96 -44t-119.5 -14.5q-15 0 -37.5 0.5t-48 2.5t-51.5 5t-47 8v605zM369 77q37 0 70.5 9t59 27t40.5 45t15 64q0 40 -16 66t-42.5 41
t-60 20.5t-69.5 5.5q-9 0 -23 -1t-27.5 -2t-25 -3t-16.5 -3v-263q15 -4 42 -5t53 -1z" />
    <glyph glyph-name="afii10045" unicode="&#x42b;" horiz-adv-x="846" 
d="M657 700h100v-700h-100v700zM89 700h100v-267q6 1 16 2.5t22.5 2.5t26 2t26.5 1q52 0 101 -10t87 -34.5t60.5 -65.5t22.5 -103q0 -60 -21.5 -105t-59.5 -74t-91 -43.5t-117 -14.5q-15 0 -36 0.5t-44.5 2.5t-47.5 5t-45 8v693zM270 77q37 0 69 9t55.5 27t37 45t13.5 63
q0 40 -15 66t-39.5 41t-57 21t-68.5 6q-19 0 -42 -3t-34 -6v-263q14 -4 34.5 -5t46.5 -1z" />
    <glyph glyph-name="afii10046" unicode="&#x42c;" horiz-adv-x="609" 
d="M89 700h100v-267q5 1 17.5 2.5t28 2.5t31.5 2t29 1q52 0 102 -10t89.5 -34t64 -65.5t24.5 -104.5q0 -60 -23.5 -104.5t-64 -73.5t-95.5 -43.5t-119 -14.5q-15 0 -37.5 0.5t-48 2.5t-51 5t-47.5 8v693zM284 77q37 0 70.5 8.5t59 26.5t40.5 45t15 65q0 40 -16 66t-42.5 41
t-60.5 20.5t-69 5.5q-9 0 -23 -1t-27.5 -2t-25 -3t-16.5 -3v-263q14 -4 41 -5t54 -1z" />
    <glyph glyph-name="afii10047" unicode="&#x42d;" horiz-adv-x="631" 
d="M161 399h305q-10 116 -73 171.5t-163 56.5q-53 1 -94 -10t-65 -25l-24 80q33 19 84.5 30t108.5 11q70 0 130.5 -20t105.5 -63.5t71 -112.5t26 -167q0 -99 -30 -168t-79.5 -112.5t-114 -63t-133.5 -19.5q-55 0 -98.5 8.5t-72.5 19.5l26 86q25 -12 65.5 -20t86.5 -8
q43 0 85 12.5t75.5 41t56 74.5t27.5 112h-306v86z" />
    <glyph glyph-name="afii10048" unicode="&#x42e;" horiz-adv-x="978" 
d="M189 401h130q11 150 88 231t214 81q79 0 136 -26t93 -74t53 -115t17 -148q0 -173 -75.5 -268t-223.5 -95q-74 0 -129 23.5t-92.5 66t-57.5 102.5t-24 134h-129v-313h-100v700h100v-299zM425 350q0 -56 10.5 -106.5t33.5 -88.5t60.5 -60t91.5 -22q97 0 145 67t48 210
q0 55 -9.5 105.5t-32 88.5t-59.5 60.5t-92 22.5q-97 0 -146.5 -68t-49.5 -209z" />
    <glyph glyph-name="afii10049" unicode="&#x42f;" horiz-adv-x="624" 
d="M535 0h-100v298l-107 -22l-187 -276h-116l169 244l66 44q-39 7 -72 22.5t-57.5 40.5t-38 59t-13.5 79q0 61 23 103t62 68t92 37.5t113 11.5q37 0 81.5 -3.5t84.5 -12.5v-693zM363 623q-35 0 -67 -6t-56.5 -21t-39.5 -40.5t-15 -65.5q0 -37 14 -62.5t38.5 -41t57 -22.5
t69.5 -7h71v260q-14 4 -30 5t-42 1z" />
    <glyph glyph-name="afii10065" unicode="&#x430;" horiz-adv-x="582" 
d="M82 492q90 43 223 43q60 0 96.5 -15.5t56.5 -39.5t26.5 -53.5t6.5 -58.5q0 -55 -4 -110.5t-4 -120.5q0 -38 3.5 -73.5t11.5 -65.5h-67l-25 80h-10q-11 -15 -27 -30.5t-38 -27.5t-50.5 -20t-65.5 -8t-68 10.5t-53.5 29.5t-35.5 46.5t-13 61.5q0 45 19.5 78t50.5 54
t70.5 31t78.5 10q31 0 52.5 -1t36 -2.5t24.5 -3t18 -2.5q2 15 3 26t1 28q0 28 -6 47t-19.5 30.5t-36.5 16.5t-56 5q-19 0 -42 -3t-46 -8.5t-45.5 -13.5t-40.5 -17zM395 238q-8 1 -17 3t-22.5 3t-32 2t-45.5 1q-62 0 -98.5 -22t-36.5 -75q0 -40 28.5 -60t73.5 -20
q33 0 58.5 8.5t44 21t30 28t17.5 30.5v80z" />
    <glyph glyph-name="afii10066" unicode="&#x431;" horiz-adv-x="635" 
d="M155 419q37 50 83.5 71t114.5 21q105 0 163.5 -63t58.5 -184q0 -69 -17.5 -121.5t-50.5 -87t-80 -52t-106 -17.5q-128 0 -192.5 78t-64.5 245q0 90 10 153t29.5 105t47 66.5t61.5 37.5t74.5 18t86.5 9q58 5 93 11t57 21l10 -81q-23 -15 -61.5 -21.5t-107.5 -11.5
q-48 -3 -85.5 -11t-65.5 -28t-45 -57.5t-23 -98.5zM162 250q0 -38 9 -71.5t28.5 -59t49.5 -40.5t71 -15q157 0 157 191q0 38 -8.5 70.5t-26 56.5t-45 37.5t-64.5 13.5q-90 0 -130.5 -47.5t-40.5 -135.5z" />
    <glyph glyph-name="afii10067" unicode="&#x432;" horiz-adv-x="582" 
d="M88 525l38 2q32 2 70 4.5t88 2.5q116 0 166.5 -32.5t50.5 -96.5q0 -35 -24.5 -70.5t-77.5 -51.5v-11q66 -13 94.5 -44t28.5 -82q0 -79 -65 -116.5t-196 -37.5q-44 0 -83 2.5t-76 5.5q-4 0 -7 0.5t-7 0.5v524zM180 72q22 -3 43 -4.5t52 -1.5q79 0 114 20.5t35 67.5
q0 19 -7 35t-23 27t-43.5 17.5t-67.5 6.5h-103v-168zM294 303q22 0 42 6t36 17t25.5 25.5t9.5 31.5q0 42 -28.5 58.5t-97.5 16.5q-23 0 -46.5 -1.5t-54.5 -2.5v-151h114z" />
    <glyph glyph-name="afii10068" unicode="&#x433;" horiz-adv-x="426" 
d="M426 447h-246v-447h-92v525h338v-78z" />
    <glyph glyph-name="afii10069" unicode="&#x434;" horiz-adv-x="624" 
d="M600 -132h-63l-16 132h-442l-18 -132h-61v210h67q10 12 25.5 42t30.5 83.5t26.5 132.5t12.5 189h353v-447h85v-210zM423 78v369h-178q-3 -45 -9 -96t-16.5 -100.5t-24.5 -94.5t-33 -78h261z" />
    <glyph glyph-name="afii10070" unicode="&#x435;" horiz-adv-x="598" 
d="M515 43q-35 -26 -87 -41.5t-113 -15.5q-66 0 -114.5 19.5t-79.5 55.5t-46 87t-15 114q0 135 66.5 206.5t189.5 71.5q39 0 78 -8.5t70 -32t50.5 -64.5t19.5 -107q0 -16 -1 -37t-4 -41h-375q2 -92 44 -139t143 -47q42 0 80 14.5t59 34.5zM446 316q2 80 -32.5 113t-96.5 33
q-70 0 -111 -33t-48 -113h288z" />
    <glyph glyph-name="afii10072" unicode="&#x436;" horiz-adv-x="774" 
d="M278 232l-164 -232h-108l175 237l45 35l-63 43l-144 210h100l153 -227h66v227h90v-238l60 16l154 222h99l-151 -209l-48 -38l62 -44l164 -234h-111l-164 236h-65v-236h-90v248z" />
    <glyph glyph-name="afii10073" unicode="&#x437;" horiz-adv-x="516" 
d="M148 233v70h77q22 0 42.5 6t36.5 16.5t25.5 25t9.5 31.5q0 42 -31 58t-94 16q-44 0 -80.5 -9.5t-59.5 -19.5l-25 70q65 37 195 37q94 0 142 -33t48 -96q0 -17 -6.5 -35t-19.5 -34.5t-31.5 -30t-42.5 -20.5v-11q68 -12 95 -44.5t27 -84.5q0 -33 -15 -61.5t-45 -49.5
t-75.5 -33t-105.5 -12q-59 0 -97.5 8t-69.5 23l24 73q27 -14 65 -20t83 -6q138 0 138 87q0 39 -33 59t-115 20h-62z" />
    <glyph glyph-name="afii10074" unicode="&#x438;" horiz-adv-x="631" 
d="M451 300l14 104h-11l-49 -98l-246 -306h-71v525h92v-310l-7 -92h11l46 89l241 313h72v-525h-92v300z" />
    <glyph glyph-name="afii10075" unicode="&#x439;" horiz-adv-x="631" 
d="M451 300l14 104h-11l-49 -98l-246 -306h-71v525h92v-310l-7 -92h11l46 89l241 313h72v-525h-92v300zM230 712q5 -22 14 -35t21 -19.5t27.5 -8t32.5 -1.5t32.5 2t27.5 9t21 19t14 33l72 -21q-11 -59 -57.5 -83t-111.5 -24q-31 0 -60 5t-52.5 17t-40 31.5t-22.5 49.5z" />
    <glyph glyph-name="afii10076" unicode="&#x43a;" horiz-adv-x="547" 
d="M237 236h-57v-236h-92v525h92v-239l55 18l179 221h101l-171 -204h1l-54 -39l65 -45l185 -237h-116z" />
    <glyph glyph-name="afii10077" unicode="&#x43b;" horiz-adv-x="584" 
d="M404 447h-170l-2 -30q-7 -99 -16.5 -177.5t-27.5 -133t-48 -83t-78 -28.5q-22 0 -39 2.5t-29 7.5l14 84q13 -4 29 -4q24 0 43 17.5t33 65.5t23 134t13 223h347v-525h-92v447z" />
    <glyph glyph-name="afii10078" unicode="&#x43c;" horiz-adv-x="752" 
d="M574 297l6 107h-12l-45 -82l-135 -199h-31l-142 199l-40 82h-11l9 -106v-298h-85v525h96l157 -231l38 -73l42 75l147 229h96v-525h-90v297z" />
    <glyph glyph-name="afii10079" unicode="&#x43d;" horiz-adv-x="624" 
d="M444 229h-264v-229h-92v525h92v-214h264v214h92v-525h-92v229z" />
    <glyph glyph-name="afii10080" unicode="&#x43e;" horiz-adv-x="631" 
d="M60 262q0 65 17 116.5t50 87.5t80.5 55t108.5 19q64 0 112 -21t80 -58.5t47.5 -88t15.5 -110.5q0 -64 -17.5 -115t-50 -87t-80 -55t-107.5 -19q-66 0 -114 21t-79.5 58t-47 87.5t-15.5 109.5zM158 262q0 -37 8.5 -72.5t27.5 -63.5t49 -45t74 -17q156 0 156 198
q0 39 -8.5 75t-27 63.5t-48.5 44.5t-72 17q-78 0 -118.5 -49.5t-40.5 -150.5z" />
    <glyph glyph-name="afii10081" unicode="&#x43f;" horiz-adv-x="618" 
d="M438 447h-258v-447h-92v525h442v-525h-92v447z" />
    <glyph glyph-name="afii10082" unicode="&#x440;" horiz-adv-x="630" 
d="M88 525h62l18 -67h9q27 39 70 60.5t97 21.5q114 0 170 -63.5t56 -202.5q0 -66 -18.5 -119.5t-53 -91t-84 -57.5t-110.5 -20q-20 0 -36.5 1.5t-30.5 5t-28 8t-29 10.5v-211h-92v725zM323 462q-60 0 -94 -30t-49 -92v-242q23 -16 50 -25t69 -9q81 0 127 53t46 158
q0 85 -34 136t-115 51z" />
    <glyph glyph-name="afii10083" unicode="&#x441;" horiz-adv-x="529" 
d="M484 36q-35 -25 -82 -37.5t-99 -12.5q-66 0 -112.5 20t-75.5 56t-42 87t-13 113q0 133 64.5 205.5t185.5 72.5q53 0 92 -9.5t70 -23.5l-24 -75q-27 14 -58.5 22t-68.5 8q-163 0 -163 -200q0 -38 9 -73.5t29 -63t52.5 -44.5t79.5 -17q42 0 73.5 11.5t52.5 27.5z" />
    <glyph glyph-name="afii10084" unicode="&#x442;" horiz-adv-x="456" 
d="M456 447h-182v-447h-92v447h-182v78h456v-78z" />
    <glyph glyph-name="afii10085" unicode="&#x443;" horiz-adv-x="531" 
d="M251 193l31 -101h13l25 102l109 331h94l-172 -475q-19 -49 -38.5 -95t-43 -81.5t-52 -57t-65.5 -21.5q-40 0 -68 9l15 78q15 -5 30 -5q20 0 36.5 5t30.5 18t25.5 36.5t21.5 60.5l-235 528h109z" />
    <glyph glyph-name="afii10086" unicode="&#x444;" horiz-adv-x="800" 
d="M355 -3q-24 -8 -45.5 -9.5t-38.5 -1.5q-104 0 -160.5 68.5t-56.5 207.5q0 131 62 202t180 71q14 0 28.5 -1t30.5 -5v171h90v-172q26 5 43 6t30 1q113 0 170.5 -62t57.5 -200q0 -64 -15.5 -117t-45 -90.5t-73 -58.5t-98.5 -21q-11 0 -32 2.5t-37 7.5v-196h-90v197z
M498 461q-16 0 -27 -1t-28 -6v-390q15 -3 29.5 -3.5t31.5 -0.5q74 0 111 55t37 158q0 43 -8 78t-26 59.5t-47.5 37.5t-72.5 13zM297 60q13 0 26.5 1t33.5 5v388q-18 4 -30 5.5t-28 1.5q-72 0 -111.5 -48.5t-39.5 -150.5q0 -43 8.5 -80t27 -64t46.5 -42.5t67 -15.5z" />
    <glyph glyph-name="afii10087" unicode="&#x445;" horiz-adv-x="592" 
d="M233 269l-189 256h117l102 -134l35 -71l41 71l106 134h104l-191 -252q50 -67 102 -136t102 -137h-114l-115 149l-40 75l-41 -75l-116 -149h-106z" />
    <glyph glyph-name="afii10088" unicode="&#x446;" horiz-adv-x="630" 
d="M610 -132h-62l-17 132h-443v525h92v-447h253v447h92v-447h85v-210z" />
    <glyph glyph-name="afii10089" unicode="&#x447;" horiz-adv-x="574" 
d="M152 525v-129q0 -32 3.5 -57t15 -43t32 -27.5t53.5 -9.5q51 0 85.5 11.5t52.5 25.5v229h92v-525h-92v223q-19 -12 -58 -27t-104 -15q-42 0 -74.5 9t-54 31t-32.5 58.5t-11 91.5v154h92z" />
    <glyph glyph-name="afii10090" unicode="&#x448;" horiz-adv-x="856" 
d="M88 0v525h92v-447h202v447h92v-447h202v447h92v-525h-680z" />
    <glyph glyph-name="afii10091" unicode="&#x449;" horiz-adv-x="872" 
d="M852 -139h-61l-17 139h-686v525h92v-447h202v447h92v-447h202v447h92v-447h84v-217z" />
    <glyph glyph-name="afii10092" unicode="&#x44a;" horiz-adv-x="583" 
d="M227 78q43 -6 86 -6q73 0 107.5 25.5t34.5 70.5q0 40 -33.5 67t-105.5 27q-20 0 -43 -1.5t-46 -6.5v-176zM227 324q32 5 60 6.5t49 1.5q59 0 100.5 -12t67.5 -33t37.5 -49.5t11.5 -61.5q0 -95 -63 -138.5t-196 -43.5q-42 0 -81 1t-78 4v448h-129v78h221v-201z" />
    <glyph glyph-name="afii10093" unicode="&#x44b;" horiz-adv-x="771" 
d="M180 78q42 -6 86 -6q72 0 101 25t29 71q0 40 -28.5 67t-98.5 27q-19 0 -42.5 -1.5t-46.5 -6.5v-176zM180 324q32 5 59.5 6.5t49.5 1.5q58 0 97.5 -12t63.5 -33t34 -49.5t10 -61.5q0 -95 -58 -138.5t-189 -43.5q-42 0 -81 1t-78 4v526h92v-201zM591 525h92v-525h-92v525z
" />
    <glyph glyph-name="afii10094" unicode="&#x44c;" horiz-adv-x="535" 
d="M180 78q42 -6 85 -6q73 0 107.5 25.5t34.5 70.5q0 40 -33.5 67t-105.5 27q-19 0 -42 -1.5t-46 -6.5v-176zM180 324q32 5 59 6.5t48 1.5q60 0 101.5 -12t67.5 -33t37.5 -49.5t11.5 -61.5q0 -95 -63 -138.5t-197 -43.5q-42 0 -80 1t-77 4v526h92v-201z" />
    <glyph glyph-name="afii10095" unicode="&#x44d;" horiz-adv-x="543" 
d="M143 304h241q-6 72 -47.5 115t-119.5 43q-47 0 -81.5 -12.5t-57.5 -26.5l-30 68q35 23 81 36t108 13q63 0 109.5 -19t77 -55t45 -87.5t14.5 -116.5q0 -134 -68 -205t-187 -71q-54 0 -102 8.5t-78 25.5l25 76q27 -14 65 -23t76 -9q81 0 122.5 38.5t48.5 123.5h-242v78z
" />
    <glyph glyph-name="afii10096" unicode="&#x44e;" horiz-adv-x="841" 
d="M543 -14q-62 0 -106 18t-73 50t-43.5 77.5t-18.5 100.5h-122v-232h-92v525h92v-215h123q10 109 68.5 169.5t173.5 60.5q63 0 107.5 -20.5t73 -57.5t42 -88t13.5 -112q0 -130 -59 -203t-179 -73zM394 262q0 -41 7 -77t24 -63t46 -42.5t73 -15.5q75 0 107 48t32 150
q0 40 -6.5 76.5t-22.5 64t-43 43.5t-68 16q-79 0 -114 -48.5t-35 -151.5z" />
    <glyph glyph-name="afii10097" unicode="&#x44f;" horiz-adv-x="578" 
d="M398 207l-95 -13l-149 -194h-114l132 172v-1l56 38q-70 8 -110.5 49.5t-40.5 101.5q0 47 18 81t51.5 56t81 32t106.5 10q38 0 79.5 -5t76.5 -13v-521h-92v207zM398 264v189q-16 5 -36.5 6.5t-35.5 1.5q-75 0 -113 -24t-38 -76q0 -50 44.5 -75t116.5 -23z" />
    <glyph glyph-name="afii10071" unicode="&#x451;" horiz-adv-x="598" 
d="M515 43q-35 -26 -87 -41.5t-113 -15.5q-66 0 -114.5 19.5t-79.5 55.5t-46 87t-15 114q0 135 66.5 206.5t189.5 71.5q39 0 78 -8.5t70 -32t50.5 -64.5t19.5 -107q0 -16 -1 -37t-4 -41h-375q2 -92 44 -139t143 -47q42 0 80 14.5t59 34.5zM446 316q2 80 -32.5 113t-96.5 33
q-70 0 -111 -33t-48 -113h288zM141 633q0 24 16 40t42 16q25 0 40.5 -16t15.5 -40q0 -23 -15.5 -39t-40.5 -16q-26 0 -42 16t-16 39zM356 633q0 24 15.5 40t41.5 16t41.5 -16t15.5 -40q0 -23 -15.5 -39t-41.5 -16t-41.5 16t-15.5 39z" />
    <glyph glyph-name="afii10099" unicode="&#x452;" horiz-adv-x="636" 
d="M0 525h97v175h92v-175h168v-66h-168v-162h11q31 36 73 57t104 21q48 0 83.5 -10.5t58.5 -37t34 -71t11 -113.5v-167q0 -93 -33.5 -137.5t-109.5 -44.5q-20 0 -42 3v75q31 -1 49 6.5t28 23.5t13 41t3 58v125q0 42 -5.5 73.5t-20 53.5t-39 33t-62.5 11q-27 0 -52.5 -9.5
t-46.5 -26.5t-36 -40.5t-21 -51.5v-169h-92v459h-97v66z" />
    <glyph glyph-name="afii10100" unicode="&#x453;" horiz-adv-x="426" 
d="M426 447h-246v-447h-92v525h338v-78zM266 720h104v-23l-112 -127h-56z" />
    <glyph glyph-name="afii10101" unicode="&#x454;" horiz-adv-x="566" 
d="M506 35q-35 -23 -84 -36t-101 -13q-66 0 -115 20t-81.5 56t-48.5 87t-16 113q0 66 19.5 118t54.5 87t84.5 53.5t108.5 18.5q56 0 97 -8.5t72 -22.5l-25 -78q-28 14 -61 22.5t-70 8.5q-78 0 -124.5 -37.5t-57.5 -118.5h265v-78h-265q4 -34 16.5 -64t35.5 -52t57 -34.5
t82 -12.5q40 0 74 12t57 27z" />
    <glyph glyph-name="afii10102" unicode="&#x455;" horiz-adv-x="499" 
d="M353 147q0 20 -9.5 33.5t-25.5 23t-37 16.5t-44 14q-29 8 -58.5 17.5t-53 26t-38.5 42.5t-15 66q0 78 46.5 116t130.5 38q63 0 106 -12t75 -26l-22 -78q-27 13 -64.5 25.5t-82.5 12.5q-49 0 -73 -16t-24 -58q0 -17 9 -28.5t24 -20t35 -15t42 -12.5q30 -8 60 -18.5t55 -28
t40.5 -44.5t15.5 -68q0 -74 -50 -120.5t-150 -46.5q-64 0 -111.5 13t-79.5 30l26 80q28 -15 72 -30t89 -15q49 0 80.5 17.5t31.5 65.5z" />
    <glyph glyph-name="afii10103" unicode="&#x456;" horiz-adv-x="317" 
d="M114 525h92v-525h-92v525zM92 651q0 23 18 41.5t47 18.5t48 -18.5t19 -41.5t-19 -40.5t-48 -17.5t-47 17.5t-18 40.5z" />
    <glyph glyph-name="afii10104" unicode="&#x457;" horiz-adv-x="337" 
d="M40 629q0 24 14 39.5t39 15.5q26 0 39.5 -15.5t13.5 -39.5q0 -22 -13.5 -37t-39.5 -15q-25 0 -39 15t-14 37zM191 629q0 24 13.5 39.5t38.5 15.5q26 0 40 -15.5t14 -39.5q0 -22 -14 -37t-40 -15q-25 0 -38.5 15t-13.5 37zM125 525h92v-525h-92v525z" />
    <glyph glyph-name="afii10105" unicode="&#x458;" horiz-adv-x="312" 
d="M112 525h92v-543q0 -97 -36.5 -144.5t-117.5 -47.5h-17.5t-20.5 2v76q33 -1 52.5 8t30 27.5t14 46t3.5 65.5v510zM90 650q0 23 18 41.5t47 18.5t48 -18.5t19 -41.5t-19 -40.5t-48 -17.5t-47 17.5t-18 40.5z" />
    <glyph glyph-name="afii10106" unicode="&#x459;" horiz-adv-x="851" 
d="M496 324q32 5 59 6.5t48 1.5q60 0 101.5 -12t67.5 -33t37.5 -49.5t11.5 -61.5q0 -95 -63 -138.5t-197 -43.5q-42 0 -80 1t-77 4v448h-170l-2 -30q-7 -99 -16.5 -177.5t-27.5 -133t-48 -83t-78 -28.5q-22 0 -39 2.5t-29 7.5l14 84q13 -4 29 -4q24 0 43 17.5t33 65.5
t23 134t13 223h347v-201zM496 78q42 -6 85 -6q73 0 107.5 25.5t34.5 70.5q0 40 -33.5 67t-105.5 27q-19 0 -42 -1.5t-46 -6.5v-176z" />
    <glyph glyph-name="afii10107" unicode="&#x45a;" horiz-adv-x="916" 
d="M547 79q28 -4 52 -5.5t44 -1.5q82 0 113.5 25.5t31.5 77.5q0 22 -7 39.5t-23.5 30t-43.5 19t-67 6.5q-20 0 -45.5 -2t-54.5 -8v-181zM547 336q37 7 68.5 9.5t52.5 2.5q62 0 103.5 -13t67 -35.5t36.5 -52.5t11 -64q0 -99 -61.5 -144t-202.5 -45q-42 0 -84 3t-83 6v227
h-275v-230h-92v525h92v-213h275v213h92v-189z" />
    <glyph glyph-name="afii10108" unicode="&#x45b;" horiz-adv-x="633" 
d="M0 525h94v176h92v-176h171v-66h-171v-162h12q32 36 73.5 56.5t103.5 20.5q48 0 83 -10t58 -36t34 -70.5t11 -112.5v-145h-92v124q0 43 -5.5 75t-20 53.5t-39 32.5t-62.5 11q-27 0 -52 -9.5t-46 -26.5t-36 -39.5t-22 -49.5v-171h-92v459h-94v66z" />
    <glyph glyph-name="afii10109" unicode="&#x45c;" horiz-adv-x="547" 
d="M237 236h-57v-236h-92v525h92v-239l55 18l179 221h101l-171 -204h1l-54 -39l65 -45l185 -237h-116zM305 720h104v-23l-112 -127h-56z" />
    <glyph glyph-name="afii10110" unicode="&#x45e;" horiz-adv-x="531" 
d="M251 193l31 -101h13l25 102l109 331h94l-172 -475q-19 -49 -38.5 -95t-43 -81.5t-52 -57t-65.5 -21.5q-40 0 -68 9l15 78q15 -5 30 -5q20 0 36.5 5t30.5 18t25.5 36.5t21.5 60.5l-235 528h109zM193 712q5 -22 14 -35t21 -19.5t27.5 -8t32.5 -1.5t32.5 2t27.5 9t21 19
t14 33l72 -21q-11 -59 -57.5 -83t-111.5 -24q-31 0 -60 5t-52.5 17t-40 31.5t-22.5 49.5z" />
    <glyph glyph-name="afii10193" unicode="&#x45f;" horiz-adv-x="618" 
d="M180 525v-447h258v447h92v-525h-169l-16 -178h-63l-22 178h-172v525h92z" />
    <glyph glyph-name="afii10146" unicode="&#x462;" horiz-adv-x="682" 
d="M0 627h162v75h100v-75h225v-82h-225v-114q6 1 18.5 2.5t28 3t31.5 2.5t29 1q52 0 102 -10t89.5 -34t63.5 -65t24 -103q0 -60 -23.5 -105t-64 -74t-95.5 -43.5t-119 -14.5q-15 0 -37.5 0.5t-48 2.5t-51 5t-47.5 8v538h-162v82zM358 77q37 0 70.5 8.5t58.5 26.5t40 45
t15 64q0 40 -16 66t-42.5 41t-60 20.5t-69.5 5.5q-9 0 -23 -1t-27.5 -2t-25 -3t-16.5 -3v-262q14 -4 41.5 -5t54.5 -1z" />
    <glyph glyph-name="afii10194" unicode="&#x463;" horiz-adv-x="576" 
d="M0 525h129v175h92v-175h185v-72h-185v-129q34 4 61.5 6t47.5 2q59 0 100 -12t67 -33t37.5 -50t11.5 -62q0 -94 -63 -137.5t-197 -43.5q-39 0 -79 0.5t-78 3.5v455h-129v72zM221 77q25 -3 46 -4t39 -1q75 0 108.5 24t33.5 72q0 43 -33 68.5t-104 25.5q-20 0 -43 -1.5
t-47 -6.5v-177z" />
    <glyph glyph-name="afii10147" unicode="&#x472;" horiz-adv-x="747" 
d="M58 350q0 86 21.5 153.5t62 114t99 71t132.5 24.5q79 0 138.5 -26.5t99 -74t59 -114.5t19.5 -148q0 -86 -21.5 -153.5t-62.5 -114t-99.5 -71t-132.5 -24.5q-80 0 -139 26.5t-98 74t-58.5 114.5t-19.5 148zM164 312q4 -50 18.5 -94t40.5 -76t63 -50.5t87 -18.5
q90 0 146 58t64 181h-419zM583 396q-5 48 -20 90t-41 73.5t-63 49.5t-86 18q-88 0 -143.5 -56.5t-64.5 -174.5h418z" />
    <glyph glyph-name="afii10195" unicode="&#x473;" horiz-adv-x="630" 
d="M60 262q0 132 66 205t190 73q64 0 112 -20.5t79.5 -57.5t47 -88t15.5 -112q0 -131 -66.5 -203.5t-187.5 -72.5q-66 0 -114.5 20.5t-80 57t-46.5 87.5t-15 111zM472 295q-12 83 -52 125t-104 42q-30 0 -57 -8.5t-49 -28.5t-36 -52t-17 -78h315zM158 229q8 -78 51.5 -121.5
t106.5 -43.5q28 0 54 9t47 28.5t35 51t18 76.5h-312z" />
    <glyph glyph-name="afii10148" unicode="&#x474;" horiz-adv-x="659" 
d="M340 -10h-51l-294 710h110l189 -466l27 -109h2l18 111l82 251q22 66 41.5 109t41.5 68t49 34.5t65 9.5t60.5 -6.5t42.5 -17.5l-27 -82q-22 12 -40.5 15t-35.5 3q-29 0 -49 -21.5t-40 -80.5z" />
    <glyph glyph-name="afii10196" unicode="&#x475;" horiz-adv-x="582" 
d="M298 -11h-40l-250 536h106l135 -301l32 -121l8 1l30 121l47 109q18 43 35.5 79.5t38 63.5t45 42t56.5 15q20 0 37 -3.5t32 -8.5l-15 -78q-11 4 -19.5 6t-17.5 2q-21 0 -41.5 -17.5t-42.5 -62.5z" />
    <glyph glyph-name="uni048A" unicode="&#x48a;" horiz-adv-x="760" 
d="M555 463l6 77h-4l-48 -79l-359 -461h-61v700h100v-466l-9 -76h5l50 79l358 463h62v-612h117v-24l-100 -194h-66l50 130h-101v463zM280 871q5 -36 30.5 -54.5t67.5 -18.5t67.5 18.5t30.5 53.5l84 -18q-13 -55 -57 -86t-126 -31q-79 0 -129.5 27t-60.5 88z" />
    <glyph glyph-name="uni048B" unicode="&#x48b;" horiz-adv-x="655" 
d="M451 300l14 104h-11l-49 -98l-246 -306h-71v525h92v-310l-7 -92h11l46 89l241 313h72v-447h100v-24l-100 -184h-66l50 130h-76v300zM223 712q5 -22 14 -35t21 -19.5t27.5 -8t32.5 -1.5t32.5 2t27.5 9t21 19t14 33l72 -21q-11 -59 -57.5 -83t-111.5 -24q-31 0 -60 5
t-52.5 17t-40 31.5t-22.5 49.5z" />
    <glyph glyph-name="uni048C" unicode="&#x48c;" horiz-adv-x="620" 
d="M0 701h100v79h100v-79h157v-70h-157v-198q5 1 17.5 2.5t28.5 2.5l32 2t29 1q52 0 102 -9.5t89.5 -34t63.5 -65.5t24 -104q0 -60 -23.5 -105t-64 -74t-95.5 -43.5t-119 -14.5q-15 0 -37.5 0.5t-48 2.5t-51 5t-47.5 8v624h-100v70zM200 83q14 -4 41.5 -5t53.5 -1
q37 0 71 8.5t59 26.5t40 45t15 64q0 40 -16 66t-42.5 41t-60 21t-69.5 6q-9 0 -23 -1t-27.5 -2t-25 -3t-16.5 -3v-263z" />
    <glyph glyph-name="uni048D" unicode="&#x48d;" horiz-adv-x="576" 
d="M0 525h129v175h92v-175h185v-72h-185v-129q34 4 61.5 6t47.5 2q59 0 100 -12t67 -33t37.5 -50t11.5 -62q0 -94 -63 -137.5t-197 -43.5q-39 0 -79 0.5t-78 3.5v455h-129v72zM221 77q25 -3 46 -4t39 -1q75 0 108.5 24t33.5 72q0 43 -33 68.5t-104 25.5q-20 0 -43 -1.5
t-47 -6.5v-177z" />
    <glyph glyph-name="uni048E" unicode="&#x48e;" horiz-adv-x="614" 
d="M89 693q42 9 91.5 12.5t97.5 3.5q51 0 103.5 -9t95.5 -33t70.5 -66.5t27.5 -109.5q0 -75 -34 -123.5t-88 -74.5l73 -102l-55 -39l-83 118q-26 -7 -54 -10t-56 -3q-6 0 -18.5 0.5t-26 1t-26 1.5t-18.5 2v-262h-100v693zM322 471l73 -106q32 15 53 44.5t21 80.5
q0 40 -17 66t-44 41t-60.5 20.5t-66.5 5.5q-27 0 -52.5 -1t-39.5 -5v-269q5 -2 16.5 -2.5t24 -1.5t24 -1h17.5q17 0 34 1t34 4l-65 90z" />
    <glyph glyph-name="uni048F" unicode="&#x48f;" horiz-adv-x="630" 
d="M88 525h62l18 -67h9q27 39 70 60.5t97 21.5q114 0 170 -63.5t56 -202.5q0 -66 -18.5 -118.5t-52.5 -90.5l67 -74l-58 -54l-72 79q-29 -14 -61.5 -22t-70.5 -8q-20 0 -36.5 1.5t-30.5 5t-28 8t-29 10.5v-211h-92v725zM372 194l60 -68q19 26 29.5 63.5t10.5 85.5
q0 85 -34 136t-115 51q-60 0 -94 -30t-49 -92v-242q23 -16 50 -25t69 -9q50 0 85 19l-64 68z" />
    <glyph glyph-name="afii10050" unicode="&#x490;" horiz-adv-x="486" 
d="M420 700l18 138h66v-226h-315v-612h-100v700h331z" />
    <glyph glyph-name="afii10098" unicode="&#x491;" horiz-adv-x="426" 
d="M342 525l18 138h66v-216h-246v-447h-92v525h254z" />
    <glyph glyph-name="uni0492" unicode="&#x492;" horiz-adv-x="532" 
d="M529 612h-315v-226h237v-74h-237v-312h-100v312h-105v74h105v314h415v-88z" />
    <glyph glyph-name="uni0493" unicode="&#x493;" horiz-adv-x="448" 
d="M424 447h-246v-159h219v-70h-219v-218h-92v218h-86v70h86v237h338v-78z" />
    <glyph glyph-name="uni0494" unicode="&#x494;" horiz-adv-x="632" 
d="M189 0h-100v700h415v-88h-315v-252q14 4 51.5 12.5t97.5 8.5q43 0 85.5 -11t76.5 -39t54.5 -75t20.5 -119q0 -135 -66.5 -200t-191.5 -65q-35 0 -51 1t-24 3v87q13 -2 30 -2.5t47 -0.5q73 0 111.5 41.5t38.5 128.5q0 48 -13 80t-35 51t-51.5 26.5t-62.5 7.5
q-18 0 -37 -2.5t-35 -6t-28.5 -7t-17.5 -5.5v-274z" />
    <glyph glyph-name="uni0495" unicode="&#x495;" horiz-adv-x="616" 
d="M180 0h-92v525h335v-78h-243v-185q29 8 65 16t88 8q45 0 85 -12.5t71 -41t49 -75t18 -114.5q0 -135 -60 -201.5t-192 -66.5q-27 0 -46.5 2t-29.5 3v78q10 -1 34 -3t45 -2q81 0 118 48.5t37 130.5q0 88 -42.5 131t-118.5 43q-40 0 -72.5 -10t-48.5 -16v-180z" />
    <glyph glyph-name="uni0496" unicode="&#x496;" horiz-adv-x="897" 
d="M392 700h94v-322l46 14l213 308h111l-216 -304l-45 -33l56 -41l173 -234h67v-216h-69l-16 128h-37l-234 320h-49v-320h-94v332l-46 -14l-233 -318h-115l236 312l53 38l-51 36l-223 314h116l214 -310h49v310z" />
    <glyph glyph-name="uni0497" unicode="&#x497;" horiz-adv-x="800" 
d="M493 236h-65v-236h-90v248l-60 -16l-164 -232h-108l175 237l45 35l-63 43l-144 210h100l153 -227h66v227h90v-238l60 16l154 222h99l-151 -209l-48 -38l62 -44l106 -156h78v-202h-65l-16 124h-50z" />
    <glyph glyph-name="uni0498" unicode="&#x498;" horiz-adv-x="589" 
d="M149 327v78h17h23.5t30 1t30 1.5t23.5 2.5q54 7 92 34.5t38 73.5q0 31 -11.5 51.5t-32 33t-47.5 18t-57 5.5q-58 0 -101 -9t-66 -20l-27 80q10 6 31 12t48.5 11t61 8.5t68.5 3.5q44 0 87 -8.5t76.5 -28.5t54.5 -53t21 -83t-35.5 -95t-107.5 -65v-4q77 -11 121.5 -53.5
t44.5 -114.5q0 -51 -20 -90t-54 -66t-77.5 -42.5t-91.5 -19.5l-15 -167h-63l-21 167q-50 3 -86 10t-60 17l25 88q26 -11 71.5 -20t111.5 -9q31 0 62 7.5t56 23t40.5 40t15.5 58.5q0 60 -46.5 88t-129.5 33q-13 1 -23 1.5t-24 0.5h-54z" />
    <glyph glyph-name="uni0499" unicode="&#x499;" horiz-adv-x="516" 
d="M148 233v70h77q22 0 42.5 6t36.5 16.5t25.5 25t9.5 31.5q0 42 -31 58t-94 16q-44 0 -80.5 -9.5t-59.5 -19.5l-25 70q65 37 195 37q94 0 142 -33t48 -96q0 -17 -6.5 -35t-19.5 -34.5t-31.5 -30t-42.5 -20.5v-11q68 -12 95 -44.5t27 -84.5q0 -57 -46 -99.5t-139 -53.5
l-15 -170h-63l-21 168q-41 3 -70 10.5t-54 19.5l24 74q27 -14 65 -20t83 -6q138 0 138 86q0 39 -33 59t-115 20h-62z" />
    <glyph glyph-name="uni049A" unicode="&#x49a;" horiz-adv-x="673" 
d="M238 318h-49v-318h-100v700h100v-322l46 14l252 308h114l-252 -300l-47 -34l55 -40l203 -238h104v-216h-69l-16 128h-70z" />
    <glyph glyph-name="uni049B" unicode="&#x49b;" horiz-adv-x="564" 
d="M180 525v-239l55 18l179 221h101l-171 -204h1l-54 -39l65 -45l121 -159h72v-202h-65l-16 124h-43l-188 236h-57v-236h-92v525h92z" />
    <glyph glyph-name="uni049C" unicode="&#x49c;" horiz-adv-x="753" 
d="M247 318h-58v-318h-100v700h100v-322l58 4v128h76v-121l25 3l226 308h112l-229 -300l-48 -34l56 -39l254 -327h-122l-247 318h-27v-128h-76v128z" />
    <glyph glyph-name="uni049D" unicode="&#x49d;" horiz-adv-x="650" 
d="M252 233h-72v-233h-92v526h92v-249l72 6v139h63v-133l43 5l137 231h90l-118 -202l-66 -46l74 -52l159 -225h-105l-166 233h-48v-123h-63v123z" />
    <glyph glyph-name="uni049E" unicode="&#x49e;" horiz-adv-x="732" 
d="M0 638h151v62h100v-62h128v-78h-128v-182l55 14l246 308h112l-246 -300l-52 -34l58 -39l274 -327h-126l-268 318h-53v-318h-100v556h-151v82z" />
    <glyph glyph-name="uni049F" unicode="&#x49f;" horiz-adv-x="566" 
d="M0 615h97v85h92v-85h168v-66h-168v-263l52 17l174 222h108l-167 -203h1l-55 -40l63 -45l185 -237h-116l-188 236h-57v-236h-92v549h-97v66z" />
    <glyph glyph-name="uni04A0" unicode="&#x4a0;" horiz-adv-x="756" 
d="M275 700v-322l46 14l252 308h114l-251 -300l-48 -34l56 -40l277 -326h-126l-271 318h-49v-318h-100v612h-175v88h275z" />
    <glyph glyph-name="uni04A1" unicode="&#x4a1;" horiz-adv-x="587" 
d="M221 287l55 17l179 221h101l-171 -203l-54 -42l67 -44l183 -236h-115l-188 236h-57v-236h-92v447h-129v78h221v-238z" />
    <glyph glyph-name="uni04A2" unicode="&#x4a2;" horiz-adv-x="770" 
d="M544 313h-355v-313h-100v700h100v-299h355v299h100v-612h97v-216h-69l-16 128h-112v313z" />
    <glyph glyph-name="uni04A3" unicode="&#x4a3;" horiz-adv-x="629" 
d="M444 229h-264v-229h-92v525h92v-214h264v214h92v-447h73v-202h-65l-16 124h-84v229z" />
    <glyph glyph-name="uni04A4" unicode="&#x4a4;" horiz-adv-x="941" 
d="M959 612h-315v-612h-100v313h-355v-313h-100v700h100v-299h355v299h415v-88z" />
    <glyph glyph-name="uni04A5" unicode="&#x4a5;" horiz-adv-x="777" 
d="M444 229h-264v-229h-92v525h92v-214h264v214h333v-78h-241v-447h-92v229z" />
    <glyph glyph-name="uni04A6" unicode="&#x4a6;" horiz-adv-x="1073" 
d="M630 225v-225h-100v612h-341v-612h-100v700h541v-340q14 4 52 12.5t98 8.5q43 0 85.5 -11t76 -39t54.5 -75t21 -119q0 -135 -67.5 -200t-190.5 -65q-35 0 -51 1t-24 3v85q13 -2 30 -2.5t47 -0.5q73 0 111.5 42t38.5 130q0 49 -13 80.5t-35 50.5t-51.5 26.5t-62.5 7.5
q-18 0 -37 -2.5t-35 -6t-28.5 -7t-18.5 -5.5v-49z" />
    <glyph glyph-name="uni04A7" unicode="&#x4a7;" horiz-adv-x="960" 
d="M530 0h-92v447h-256v-447h-94v525h442v-265q30 9 66 17t85 8q44 0 84.5 -12.5t72 -41t50 -74.5t18.5 -114q0 -136 -60 -201.5t-189 -65.5q-29 0 -49 4t-29 5v77q9 0 31 -4t48 -4q81 0 117.5 47t36.5 132q0 44 -12 77t-33 54.5t-50.5 32t-64.5 10.5t-66.5 -8t-55.5 -15
v-184z" />
    <glyph glyph-name="uni04A8" unicode="&#x4a8;" horiz-adv-x="899" 
d="M387 627q-50 0 -91 -17t-70 -51.5t-45.5 -86t-16.5 -119.5q0 -60 19 -111t52.5 -88.5t78.5 -59t97 -21.5q11 0 25.5 1t25.5 5q-34 19 -61 48.5t-45.5 67t-28.5 80.5t-10 88q0 76 20 135.5t54.5 99.5t82 61t101.5 21q61 0 107.5 -20t78 -56.5t48 -89t16.5 -116.5
q0 -60 -14 -111.5t-37.5 -93t-54.5 -71.5t-64 -47q5 -1 10.5 -1.5t11.5 -0.5q41 0 72.5 9t52.5 23l30 -79q-20 -17 -52 -28t-90 -11q-36 0 -73 10t-61 24q-62 -34 -145 -34q-82 0 -147.5 26t-111 73.5t-70 114.5t-24.5 149q0 85 22.5 152.5t65.5 114.5t103.5 71.5
t137.5 24.5v-86zM423 358q0 -33 8.5 -69.5t26.5 -70.5t44.5 -63t62.5 -48q29 15 56.5 41.5t49.5 63t35 82t13 98.5q0 41 -7.5 78t-24.5 64.5t-44 43.5t-65 16q-31 0 -59 -13.5t-49.5 -42.5t-34 -73.5t-12.5 -106.5z" />
    <glyph glyph-name="uni04A9" unicode="&#x4a9;" horiz-adv-x="782" 
d="M312 463q-154 -9 -154 -199q0 -39 11.5 -75.5t34.5 -64t57.5 -44t80.5 -16.5q12 0 29.5 2.5t36.5 13.5q-44 27 -73 79t-29 127q0 36 9.5 78t33.5 77.5t64.5 59.5t102.5 24q54 0 92.5 -17.5t62.5 -48t35 -71.5t11 -87q0 -38 -12.5 -73.5t-32.5 -65.5t-46 -54t-53 -39
q16 -5 30 -7t25 -2q21 0 44 6t46 25q8 -19 13 -32t9 -26l2 -8q-21 -17 -54.5 -28t-74.5 -11q-33 0 -66 12t-57 30q-37 -24 -79.5 -33t-80.5 -9q-64 0 -114.5 20.5t-85 57t-52.5 87t-18 110.5q0 128 62.5 201t189.5 79v-78zM400 272q0 -59 27.5 -108t72.5 -77
q24 13 45.5 33.5t38 48t26 60.5t9.5 70q0 27 -6.5 53.5t-19.5 47.5t-32.5 34t-46.5 13q-35 0 -57 -16t-34.5 -41t-17.5 -56.5t-5 -61.5z" />
    <glyph glyph-name="uni04AA" unicode="&#x4aa;" horiz-adv-x="624" 
d="M584 30q-28 -20 -68.5 -30t-87.5 -12l-15 -166h-63l-21 170q-57 9 -106 35t-86 70.5t-58 107t-21 145.5q0 98 30 167t78 112.5t108 63.5t119 20q66 0 108 -7t71 -18l-22 -84q-49 23 -149 23q-45 0 -87.5 -15t-76 -48t-53.5 -85.5t-20 -128.5q0 -68 19 -119.5t52.5 -86.5
t79 -52.5t99.5 -17.5q49 0 85 9t61 23z" />
    <glyph glyph-name="uni04AB" unicode="&#x4ab;" horiz-adv-x="529" 
d="M484 36q-29 -20 -65 -32t-77 -16l-15 -166h-63l-21 169q-50 9 -85 32t-56.5 58t-31.5 81t-10 100q0 133 64.5 205.5t185.5 72.5q53 0 92 -9.5t70 -23.5l-24 -75q-27 14 -58.5 22t-68.5 8q-163 0 -163 -200q0 -38 9 -73t29 -62.5t52.5 -44t79.5 -16.5q42 0 73.5 11.5
t52.5 27.5z" />
    <glyph glyph-name="uni04AC" unicode="&#x4ac;" horiz-adv-x="610" 
d="M255 612h-236v88h572v-88h-236v-524h97v-216h-69l-16 128h-112v612z" />
    <glyph glyph-name="uni04AD" unicode="&#x4ad;" horiz-adv-x="456" 
d="M182 447h-182v78h456v-78h-182v-369h77v-202h-65l-16 124h-88v447z" />
    <glyph glyph-name="uni04AE" unicode="&#x4ae;" horiz-adv-x="617" 
d="M261 274l-254 426h117l175 -297l17 -64h2l19 66l167 295h106l-249 -425v-275h-100v274z" />
    <glyph glyph-name="uni04AF" unicode="&#x4af;" horiz-adv-x="551" 
d="M8 525h107l136 -336l31 -125h8l31 126l122 335h100l-216 -527v-199h-92v199z" />
    <glyph glyph-name="uni04B0" unicode="&#x4b0;" horiz-adv-x="617" 
d="M95 287h158l-246 413h117l175 -297l17 -64h2l19 66l167 295h106l-242 -413h159v-70h-166v-217h-100v217h-166v70z" />
    <glyph glyph-name="uni04B1" unicode="&#x4b1;" horiz-adv-x="551" 
d="M100 1h133l-225 524h107l136 -336l31 -125h8l31 126l122 335h100l-215 -524h134v-66h-135v-136h-92v136h-135v66z" />
    <glyph glyph-name="uni04B2" unicode="&#x4b2;" horiz-adv-x="710" 
d="M279 356l-231 344h119l151 -230l27 -58l26 58l158 230h110l-238 -337l188 -275h112v-216h-69l-16 128h-83l-167 244l-31 61l-28 -61l-171 -244h-110z" />
    <glyph glyph-name="uni04B3" unicode="&#x4b3;" horiz-adv-x="591" 
d="M333 149l-40 75l-41 -75l-116 -149h-106l203 269l-189 256h117l102 -134l35 -71l41 71l106 134h104l-191 -252q35 -48 71 -97.5t72 -97.5h74v-202h-65l-16 124h-46z" />
    <glyph glyph-name="uni04B4" unicode="&#x4b4;" horiz-adv-x="918" 
d="M889 -128h-69l-16 128h-549v612h-236v88h529v-88h-193v-524h333v612h100v-612h101v-216z" />
    <glyph glyph-name="uni04B5" unicode="&#x4b5;" horiz-adv-x="720" 
d="M700 -132h-61l-19 132h-440v447h-180v78h441v-78h-169v-369h251v447h92v-447h85v-210z" />
    <glyph glyph-name="uni04B6" unicode="&#x4b6;" horiz-adv-x="700" 
d="M176 700v-221q0 -67 32 -103.5t101 -36.5q51 0 94.5 12t70.5 32v317h100v-612h97v-216h-69l-16 128h-112v298q-29 -16 -77.5 -30.5t-111.5 -14.5q-47 0 -85.5 11t-66 36t-42.5 63.5t-15 94.5v242h100z" />
    <glyph glyph-name="uni04B7" unicode="&#x4b7;" horiz-adv-x="577" 
d="M152 525v-129q0 -32 3.5 -57t15 -43t32 -27.5t53.5 -9.5q51 0 85.5 11.5t52.5 25.5v229h92v-447h71v-202h-65l-16 124h-82v223q-19 -12 -58 -27t-104 -15q-42 0 -74.5 9t-54 31t-32.5 58.5t-11 91.5v154h92z" />
    <glyph glyph-name="uni04B8" unicode="&#x4b8;" horiz-adv-x="675" 
d="M296 253h-11q-46 0 -84.5 10t-66 33.5t-43 62t-15.5 95.5v246h100v-225q0 -130 120 -136v121h76v-117q35 5 64.5 15.5t49.5 24.5v317h100v-700h-100v298q-19 -10 -48.5 -20t-65.5 -17v-121h-76v113z" />
    <glyph glyph-name="uni04B9" unicode="&#x4b9;" horiz-adv-x="605" 
d="M259 197h-23q-42 0 -75 9t-55.5 30.5t-34 57t-11.5 89.5v142h92v-109q0 -34 3.5 -61t14.5 -45.5t32.5 -29t56.5 -11.5v142h64v-138q35 6 61 16.5t41 22.5v213h92v-525h-92v243q-14 -10 -39 -20.5t-63 -17.5v-131h-64v123z" />
    <glyph glyph-name="uni04BA" unicode="&#x4ba;" horiz-adv-x="662" 
d="M486 0v228q0 133 -132 133q-51 0 -94.5 -12t-70.5 -33v-316h-100v700h100v-298q29 16 77 30.5t111 14.5q46 0 84 -10.5t66 -33.5t43.5 -60.5t15.5 -92.5v-250h-100z" />
    <glyph glyph-name="uni04BB" unicode="&#x4bb;" horiz-adv-x="641" 
d="M461 0v290q0 43 -5.5 74.5t-20 52.5t-39 31t-61.5 10q-26 0 -51 -9t-46 -25t-36 -38.5t-22 -50.5v-335h-92v700h92v-240h11q30 36 72 58t104 22q48 0 83 -10.5t58 -37t34 -71t11 -111.5v-310h-92z" />
    <glyph glyph-name="uni04BC" unicode="&#x4bc;" horiz-adv-x="862" 
d="M310 310q18 -237 248 -237q49 0 91 14t71 31l25 -79q-38 -21 -88.5 -36.5t-117.5 -15.5q-72 0 -131 19t-101.5 58.5t-67.5 100.5t-29 145h-39q-47 0 -79.5 11t-53 29t-29 42.5t-7.5 51.5q1 29 7.5 45.5t20.5 28.5h91q-17 -12 -23 -31t-6 -33q0 -10 3 -20.5t12 -19.5
t26 -15t45 -6q8 0 15.5 0.5t16.5 1.5q8 152 85.5 235t217.5 83q138 0 209 -77t71 -217q0 -26 -2.5 -53t-7.5 -56h-473zM690 396q2 12 2.5 24t0.5 23q0 37 -10 70.5t-32 58.5t-55.5 40t-80.5 15q-98 0 -149.5 -58.5t-56.5 -172.5h381z" />
    <glyph glyph-name="uni04BD" unicode="&#x4bd;" horiz-adv-x="711" 
d="M628 43q-35 -26 -87 -41.5t-113 -15.5q-65 0 -112.5 18.5t-79 53t-47 83t-16.5 109.5h-3q-78 0 -124 33t-45 107q2 29 14 50t26 36h75q-14 -15 -24 -36t-10 -47q0 -16 4 -30t14.5 -24t29 -15.5t46.5 -5.5q14 109 78.5 165.5t174.5 56.5q39 0 78 -8.5t70 -32t50.5 -64.5
t19.5 -107q0 -16 -1 -37t-4 -41h-375q2 -92 44 -139t143 -47q42 0 80 14.5t59 34.5zM559 316q2 80 -32.5 113t-96.5 33q-70 0 -111 -33t-48 -113h288z" />
    <glyph glyph-name="uni04BE" unicode="&#x4be;" horiz-adv-x="862" 
d="M310 310q18 -236 248 -236q49 0 91 13.5t71 30.5l25 -79q-34 -20 -79 -34t-102 -17l-15 -166h-63l-21 171q-114 17 -181 94t-74 223h-39q-47 0 -79.5 11t-53 29t-29 42.5t-7.5 51.5q1 29 7.5 45.5t20.5 28.5h91q-17 -12 -23 -31t-6 -33q0 -10 3 -20.5t12 -19.5t26 -15
t45 -6q8 0 15.5 0.5t16.5 1.5q8 152 85.5 235t217.5 83q138 0 209 -77t71 -217q0 -26 -2.5 -53t-7.5 -56h-473zM690 396q2 12 2.5 24t0.5 23q0 37 -10 70.5t-32 58.5t-55.5 40t-80.5 15q-98 0 -149.5 -58.5t-56.5 -172.5h381z" />
    <glyph glyph-name="uni04BF" unicode="&#x4bf;" horiz-adv-x="711" 
d="M267 250q2 -92 44 -138t143 -46q42 0 80 14.5t59 34.5l35 -72q-29 -23 -71.5 -37t-93.5 -18l-15 -175h-63l-22 178q-96 17 -142 85t-48 175h-3q-78 0 -124 32.5t-45 106.5q2 29 14 50t26 36h75q-14 -15 -24 -36t-10 -47q0 -16 4 -30t14.5 -24.5t29 -16t46.5 -5.5
q14 109 78.5 166t174.5 57q39 0 78 -8.5t70 -32t50.5 -64.5t19.5 -107q0 -16 -1 -37t-4 -41h-375zM559 316q2 80 -32.5 113t-96.5 33q-70 0 -111 -33t-48 -113h288z" />
    <glyph glyph-name="uni04C0" unicode="&#x4c0;" horiz-adv-x="398" 
d="M149 634h-80v66h260v-66h-80v-568h80v-66h-260v66h80v568z" />
    <glyph glyph-name="uni04C3" unicode="&#x4c3;" horiz-adv-x="658" 
d="M480 72q0 126 -58 186t-185 60h-48v-318h-100v700h100v-322l46 14l252 308h114l-242 -284l-63 -39h68q57 -13 98 -35.5t67.5 -58t38.5 -86t12 -119.5v-19q0 -72 -15.5 -123t-43.5 -83.5t-68 -47.5t-88 -15q-9 0 -18.5 0.5t-19.5 1.5v86q42 -1 71.5 8.5t47.5 32.5t26 60.5
t8 92.5z" />
    <glyph glyph-name="uni04C4" unicode="&#x4c4;" horiz-adv-x="559" 
d="M419 34q0 55 -12 90t-35 55t-57 28t-79 9h-56v-216h-92v525h92v-250l55 19l178 231h101l-171 -213l-52 -37q20 -2 31 -3t17 -2t8.5 -1h4.5q47 -12 78 -35t49 -52t25 -62.5t7 -64.5v-19q0 -64 -15 -110t-41.5 -75.5t-63 -43.5t-79.5 -14q-16 0 -43 3v75q71 -5 110.5 36.5
t39.5 126.5z" />
    <glyph glyph-name="uni04C5" unicode="&#x4c5;" horiz-adv-x="684" 
d="M494 612h-220q-5 -99 -11.5 -180t-16.5 -146.5t-23.5 -115.5t-33.5 -87q-26 -48 -60 -68t-71 -20q-21 0 -34.5 2.5t-27.5 7.5l13 84q12 -3 24 -3t24.5 4.5t24.5 15t23 29.5q15 26 28 70t23 112t16.5 162.5t9.5 220.5h412v-612h102v-24l-100 -194h-66l50 130h-86v612z" />
    <glyph glyph-name="uni04C6" unicode="&#x4c6;" horiz-adv-x="596" 
d="M404 447h-170l-2 -30q-7 -99 -16.5 -177.5t-27.5 -133t-48 -83t-78 -28.5q-22 0 -39 2.5t-29 7.5l14 84q13 -4 29 -4q24 0 43 17.5t33 65.5t23 134t13 223h347v-447h88v-24l-100 -184h-66l50 130h-64v447z" />
    <glyph glyph-name="uni04C7" unicode="&#x4c7;" horiz-adv-x="733" 
d="M644 0v-24q0 -93 -35 -139.5t-112 -46.5q-10 0 -19.5 1t-20.5 3v84q31 -1 48.5 5.5t26 21t10.5 38.5t2 57v313h-355v-313h-100v700h100v-299h355v299h100v-700z" />
    <glyph glyph-name="uni04C8" unicode="&#x4c8;" horiz-adv-x="624" 
d="M180 525v-214h264v214h92v-549q0 -93 -33.5 -137.5t-109.5 -44.5q-20 0 -42 3v75q31 -1 49 6.5t28 23t13 40.5t3 58v229h-264v-229h-92v525h92z" />
    <glyph glyph-name="uni04C9" unicode="&#x4c9;" horiz-adv-x="745" 
d="M544 313h-355v-313h-100v700h100v-299h355v299h100v-612h113v-24l-100 -194h-66l50 130h-97v313z" />
    <glyph glyph-name="uni04CA" unicode="&#x4ca;" horiz-adv-x="638" 
d="M444 229h-264v-229h-92v525h92v-214h264v214h92v-447h90v-24l-100 -184h-66l50 130h-66v229z" />
    <glyph glyph-name="uni04CB" unicode="&#x4cb;" horiz-adv-x="663" 
d="M176 700v-221q0 -67 32 -103.5t101 -36.5q51 0 94.5 12t70.5 32v317h100v-700h-113l-16 -128h-69v216h98v210q-29 -16 -77.5 -30.5t-111.5 -14.5q-47 0 -85.5 11t-66 36t-42.5 63.5t-15 94.5v242h100z" />
    <glyph glyph-name="uni04CC" unicode="&#x4cc;" horiz-adv-x="572" 
d="M392 226q-25 -11 -65.5 -24t-95.5 -13q-85 0 -128 39t-43 138v159h92v-128q0 -30 3.5 -54t14 -41t30.5 -26t53 -9q51 0 85 11t54 25v222h92v-525h-109l-20 -134h-58v212h95v148z" />
    <glyph glyph-name="uni04CD" unicode="&#x4cd;" horiz-adv-x="884" 
d="M679 451l11 112h-4l-43 -97l-195 -310h-30l-205 311l-41 95h-5l16 -110v-452h-94v700h75l237 -357l37 -76h2l35 78l225 355h79v-612h117v-24l-100 -194h-66l50 130h-101v451z" />
    <glyph glyph-name="uni04CE" unicode="&#x4ce;" horiz-adv-x="768" 
d="M574 297l6 107h-12l-45 -82l-135 -199h-31l-142 199l-40 82h-11l9 -106v-298h-85v525h96l157 -231l38 -73l42 75l147 229h96v-447h92v-24l-100 -184h-66l50 130h-66v297z" />
    <glyph glyph-name="uni04CF" unicode="&#x4cf;" horiz-adv-x="279" 
d="M92 700h95v-700h-95v700z" />
    <glyph glyph-name="uni04D0" unicode="&#x4d0;" horiz-adv-x="645" 
d="M457 183h-277l-74 -183h-98l288 710h52l289 -710h-104zM210 267h218l-81 199l-27 107h-2l-27 -109zM224 871q5 -36 30.5 -54.5t67.5 -18.5t67.5 18.5t30.5 53.5l84 -18q-13 -55 -57 -86t-126 -31q-79 0 -129.5 27t-60.5 88z" />
    <glyph glyph-name="uni04D1" unicode="&#x4d1;" horiz-adv-x="582" 
d="M82 492q90 43 223 43q60 0 96.5 -15.5t56.5 -39.5t26.5 -53.5t6.5 -58.5q0 -55 -4 -110.5t-4 -120.5q0 -38 3.5 -73.5t11.5 -65.5h-67l-25 80h-10q-11 -15 -27 -30.5t-38 -27.5t-50.5 -20t-65.5 -8t-68 10.5t-53.5 29.5t-35.5 46.5t-13 61.5q0 45 19.5 78t50.5 54
t70.5 31t78.5 10q31 0 52.5 -1t36 -2.5t24.5 -3t18 -2.5q2 15 3 26t1 28q0 28 -6 47t-19.5 30.5t-36.5 16.5t-56 5q-19 0 -42 -3t-46 -8.5t-45.5 -13.5t-40.5 -17zM395 238q-8 1 -17 3t-22.5 3t-32 2t-45.5 1q-62 0 -98.5 -22t-36.5 -75q0 -40 28.5 -60t73.5 -20
q33 0 58.5 8.5t44 21t30 28t17.5 30.5v80zM186 712q5 -22 14 -35t21 -19.5t27.5 -8t32.5 -1.5t32.5 2t27.5 9t21 19t14 33l72 -21q-11 -59 -57.5 -83t-111.5 -24q-31 0 -60 5t-52.5 17t-40 31.5t-22.5 49.5z" />
    <glyph glyph-name="uni04D2" unicode="&#x4d2;" horiz-adv-x="645" 
d="M457 183h-277l-74 -183h-98l288 710h52l289 -710h-104zM210 267h218l-81 199l-27 107h-2l-27 -109zM152 795q0 23 16.5 36t45.5 13q28 0 45 -13t17 -36q0 -22 -17 -35.5t-45 -13.5q-29 0 -45.5 13.5t-16.5 35.5zM366 795q0 23 16.5 36t44.5 13q29 0 46 -13t17 -36
q0 -22 -17 -35.5t-46 -13.5q-28 0 -44.5 13.5t-16.5 35.5z" />
    <glyph glyph-name="uni04D3" unicode="&#x4d3;" horiz-adv-x="582" 
d="M82 492q90 43 223 43q60 0 96.5 -15.5t56.5 -39.5t26.5 -53.5t6.5 -58.5q0 -55 -4 -110.5t-4 -120.5q0 -38 3.5 -73.5t11.5 -65.5h-67l-25 80h-10q-11 -15 -27 -30.5t-38 -27.5t-50.5 -20t-65.5 -8t-68 10.5t-53.5 29.5t-35.5 46.5t-13 61.5q0 45 19.5 78t50.5 54
t70.5 31t78.5 10q31 0 52.5 -1t36 -2.5t24.5 -3t18 -2.5q2 15 3 26t1 28q0 28 -6 47t-19.5 30.5t-36.5 16.5t-56 5q-19 0 -42 -3t-46 -8.5t-45.5 -13.5t-40.5 -17zM395 238q-8 1 -17 3t-22.5 3t-32 2t-45.5 1q-62 0 -98.5 -22t-36.5 -75q0 -40 28.5 -60t73.5 -20
q33 0 58.5 8.5t44 21t30 28t17.5 30.5v80zM119 634q0 24 16 40t42 16q25 0 40.5 -16t15.5 -40q0 -23 -15.5 -39t-40.5 -16q-26 0 -42 16t-16 39zM334 634q0 24 15.5 40t41.5 16t41.5 -16t15.5 -40q0 -23 -15.5 -39t-41.5 -16t-41.5 16t-15.5 39z" />
    <glyph glyph-name="uni04D4" unicode="&#x4d4;" horiz-adv-x="929" 
d="M429 591l-38 -106l-136 -212h178v318h-4zM433 189h-230l-120 -189h-108l456 700h425v-86h-323v-213h295v-86h-295v-229h328v-86h-428v189z" />
    <glyph glyph-name="uni04D5" unicode="&#x4d5;" horiz-adv-x="930" 
d="M397 236q-17 2 -35.5 1.5t-35.5 -0.5q-36 0 -69 -4t-58.5 -14t-40.5 -27t-15 -43q0 -36 28.5 -58.5t73.5 -22.5q33 0 58 8t43.5 20t31 26.5t19.5 28.5v85zM421 92q-15 -18 -35 -36t-45 -32t-56.5 -23t-69.5 -9q-37 0 -68 10t-53.5 29t-35.5 46.5t-13 61.5q0 45 20.5 76
t58 49.5t90 27t115.5 8.5q15 0 33.5 -0.5t35.5 1.5v3q3 24 3 53q0 56 -27 78t-93 22q-18 0 -40.5 -2.5t-46 -7t-46 -11t-40.5 -13.5l-25 66q42 21 100 33.5t123 12.5q57 0 97 -19t62 -51q16 19 37.5 33t45.5 23.5t50 14t50 4.5q40 0 79 -8.5t70 -31.5t50 -65t19 -108
q0 -14 -0.5 -31.5t-3.5 -43.5h-376q1 -45 11.5 -80.5t33 -60t58 -37.5t85.5 -13q38 0 76 12t63 31l33 -61q-34 -25 -88 -41t-110 -16q-70 0 -128.5 28t-87.5 78h-11zM777 318q1 40 -7.5 67.5t-25.5 44.5t-41 24.5t-54 7.5q-69 0 -109 -33t-50 -111h287z" />
    <glyph glyph-name="uni04D6" unicode="&#x4d6;" horiz-adv-x="585" 
d="M89 700h423v-86h-323v-213h295v-86h-295v-229h328v-86h-428v700zM204 871q5 -36 30.5 -54.5t67.5 -18.5t67.5 18.5t30.5 53.5l84 -18q-13 -55 -57 -86t-126 -31q-79 0 -129.5 27t-60.5 88z" />
    <glyph glyph-name="uni04D7" unicode="&#x4d7;" horiz-adv-x="598" 
d="M515 43q-35 -26 -87 -41.5t-113 -15.5q-66 0 -114.5 19.5t-79.5 55.5t-46 87t-15 114q0 135 66.5 206.5t189.5 71.5q39 0 78 -8.5t70 -32t50.5 -64.5t19.5 -107q0 -16 -1 -37t-4 -41h-375q2 -92 44 -139t143 -47q42 0 80 14.5t59 34.5zM446 316q2 80 -32.5 113t-96.5 33
q-70 0 -111 -33t-48 -113h288zM223 712q5 -22 14 -35t21 -19.5t27.5 -8t32.5 -1.5t32.5 2t27.5 9t21 19t14 33l72 -21q-11 -59 -57.5 -83t-111.5 -24q-31 0 -60 5t-52.5 17t-40 31.5t-22.5 49.5z" />
    <glyph glyph-name="uni04D8" unicode="&#x4d8;" horiz-adv-x="698" 
d="M163 313q-2 -12 -3 -24t-1 -24q0 -37 10.5 -71.5t32.5 -61.5t55.5 -43t79.5 -16q97 0 149.5 59.5t53.5 180.5h-377zM540 397q-9 118 -64.5 174t-165.5 56q-26 0 -51 -4.5t-47.5 -11t-41 -14t-30.5 -14.5l-23 80q32 19 88 34.5t124 15.5q73 0 131 -20.5t98 -64.5t61 -113
t21 -165q0 -173 -76 -268t-229 -95q-69 0 -121.5 21t-87.5 59.5t-53 93.5t-18 123q0 26 3 54.5t8 58.5h474z" />
    <glyph glyph-name="afii10846" unicode="&#x4d9;" horiz-adv-x="599" 
d="M84 481q36 26 87.5 42t110.5 16q67 0 115.5 -20.5t80 -57t46.5 -87.5t15 -112q0 -65 -17 -116t-48.5 -86.5t-77.5 -54.5t-104 -19q-43 0 -84 11t-73 37.5t-51.5 71t-19.5 112.5q0 14 1 33.5t4 40.5h375q-5 45 -15.5 77.5t-32 52.5t-55.5 29.5t-84 9.5q-39 0 -78 -14
t-63 -32zM293 64q65 0 106 42t42 120h-283q-3 -84 34.5 -123t100.5 -39z" />
    <glyph glyph-name="uni04DA" unicode="&#x4da;" horiz-adv-x="698" 
d="M163 313q-2 -12 -3 -24t-1 -24q0 -37 10.5 -71.5t32.5 -61.5t55.5 -43t79.5 -16q97 0 149.5 59.5t53.5 180.5h-377zM540 397q-9 118 -64.5 174t-165.5 56q-26 0 -51 -4.5t-47.5 -11t-41 -14t-30.5 -14.5l-23 80q32 19 88 34.5t124 15.5q73 0 131 -20.5t98 -64.5t61 -113
t21 -165q0 -173 -76 -268t-229 -95q-69 0 -121.5 21t-87.5 59.5t-53 93.5t-18 123q0 26 3 54.5t8 58.5h474zM172 795q0 23 16.5 36t45.5 13q28 0 45 -13t17 -36q0 -22 -17 -35.5t-45 -13.5q-29 0 -45.5 13.5t-16.5 35.5zM386 795q0 23 16.5 36t44.5 13q29 0 46 -13t17 -36
q0 -22 -17 -35.5t-46 -13.5q-28 0 -44.5 13.5t-16.5 35.5z" />
    <glyph glyph-name="uni04DB" unicode="&#x4db;" horiz-adv-x="599" 
d="M84 481q36 26 87.5 42t110.5 16q67 0 115.5 -20.5t80 -57t46.5 -87.5t15 -112q0 -65 -17 -116t-48.5 -86.5t-77.5 -54.5t-104 -19q-43 0 -84 11t-73 37.5t-51.5 71t-19.5 112.5q0 14 1 33.5t4 40.5h375q-5 45 -15.5 77.5t-32 52.5t-55.5 29.5t-84 9.5q-39 0 -78 -14
t-63 -32zM293 64q65 0 106 42t42 120h-283q-3 -84 34.5 -123t100.5 -39zM131 634q0 24 16 40t42 16q25 0 40.5 -16t15.5 -40q0 -23 -15.5 -39t-40.5 -16q-26 0 -42 16t-16 39zM346 634q0 24 15.5 40t41.5 16t41.5 -16t15.5 -40q0 -23 -15.5 -39t-41.5 -16t-41.5 16t-15.5 39
z" />
    <glyph glyph-name="uni04DC" unicode="&#x4dc;" horiz-adv-x="888" 
d="M392 700h94v-322l46 14l213 308h111l-216 -304l-45 -33l56 -41l239 -322h-121l-234 320h-49v-320h-94v332l-46 -14l-233 -318h-115l236 312l53 38l-51 36l-223 314h116l214 -310h49v310zM271 795q0 23 16.5 36t45.5 13q28 0 45 -13t17 -36q0 -22 -17 -35.5t-45 -13.5
q-29 0 -45.5 13.5t-16.5 35.5zM485 795q0 23 16.5 36t44.5 13q29 0 46 -13t17 -36q0 -22 -17 -35.5t-46 -13.5q-28 0 -44.5 13.5t-16.5 35.5z" />
    <glyph glyph-name="uni04DD" unicode="&#x4dd;" horiz-adv-x="774" 
d="M278 232l-164 -232h-108l175 237l45 35l-63 43l-144 210h100l153 -227h66v227h90v-238l60 16l154 222h99l-151 -209l-48 -38l62 -44l164 -234h-111l-164 236h-65v-236h-90v248zM218 634q0 24 16 40t42 16q25 0 40.5 -16t15.5 -40q0 -23 -15.5 -39t-40.5 -16q-26 0 -42 16
t-16 39zM433 634q0 24 15.5 40t41.5 16t41.5 -16t15.5 -40q0 -23 -15.5 -39t-41.5 -16t-41.5 16t-15.5 39z" />
    <glyph glyph-name="uni04DE" unicode="&#x4de;" horiz-adv-x="589" 
d="M149 327v78h17h23.5t30 1t30 1.5t23.5 2.5q54 7 92 34.5t38 73.5q0 31 -11.5 51.5t-32 33t-47.5 18t-57 5.5q-58 0 -101 -9t-66 -20l-27 80q10 6 31 12t48.5 11t61 8.5t68.5 3.5q44 0 87 -8.5t76.5 -28.5t54.5 -53t21 -83t-35.5 -95t-107.5 -65v-4q77 -11 121.5 -53.5
t44.5 -114.5q0 -57 -25 -98.5t-65.5 -68.5t-92 -40t-105.5 -13q-72 0 -121 8.5t-79 20.5l25 86q26 -11 71.5 -20t111.5 -9q31 0 62 8t56 24t40.5 40.5t15.5 58.5q0 60 -46.5 88t-129.5 33q-13 1 -23 1.5t-24 0.5h-54zM95 795q0 23 16.5 36t45.5 13q28 0 45 -13t17 -36
q0 -22 -17 -35.5t-45 -13.5q-29 0 -45.5 13.5t-16.5 35.5zM309 795q0 23 16.5 36t44.5 13q29 0 46 -13t17 -36q0 -22 -17 -35.5t-46 -13.5q-28 0 -44.5 13.5t-16.5 35.5z" />
    <glyph glyph-name="uni04DF" unicode="&#x4df;" horiz-adv-x="516" 
d="M148 233v70h77q22 0 42.5 6t36.5 16.5t25.5 25t9.5 31.5q0 42 -31 58t-94 16q-44 0 -80.5 -9.5t-59.5 -19.5l-25 70q65 37 195 37q94 0 142 -33t48 -96q0 -17 -6.5 -35t-19.5 -34.5t-31.5 -30t-42.5 -20.5v-11q68 -12 95 -44.5t27 -84.5q0 -33 -15 -61.5t-45 -49.5
t-75.5 -33t-105.5 -12q-59 0 -97.5 8t-69.5 23l24 73q27 -14 65 -20t83 -6q138 0 138 87q0 39 -33 59t-115 20h-62zM68 634q0 24 16 40t42 16q25 0 40.5 -16t15.5 -40q0 -23 -15.5 -39t-40.5 -16q-26 0 -42 16t-16 39zM283 634q0 24 15.5 40t41.5 16t41.5 -16t15.5 -40
q0 -23 -15.5 -39t-41.5 -16t-41.5 16t-15.5 39z" />
    <glyph glyph-name="uni04E0" unicode="&#x4e0;" horiz-adv-x="614" 
d="M251 73q40 0 75 8.5t61 26t41 42.5t15 58q0 69 -55 98.5t-155 29.5h-95v34l197 209l48 43l-67 -10h-255v88h457v-41l-213 -225l-40 -30v-3l40 9q54 0 98.5 -13.5t76 -39t49 -61.5t17.5 -82q0 -54 -22.5 -96t-62 -71.5t-93.5 -44.5t-117 -15q-23 0 -51 3t-55 8t-50 12
t-38 15l24 86q12 -7 32.5 -13.5t44 -12t48 -9t45.5 -3.5z" />
    <glyph glyph-name="uni04E1" unicode="&#x4e1;" horiz-adv-x="525" 
d="M198 -149q39 0 73.5 10.5t59.5 30t39.5 47t14.5 61.5q0 73 -51 107.5t-141 34.5h-80v30l161 227l63 55l-89 -7h-220v78h417v-37l-181 -238l-50 -42l49 7q43 0 82 -15t68.5 -41.5t46.5 -63.5t17 -82q0 -57 -22 -101.5t-60 -75t-90 -47t-112 -16.5q-49 0 -91 8.5t-78 24.5
l25 74q30 -13 66.5 -21t82.5 -8z" />
    <glyph glyph-name="uni04E2" unicode="&#x4e2;" horiz-adv-x="744" 
d="M555 463l6 77h-4l-48 -79l-359 -461h-61v700h100v-466l-9 -76h5l50 79l358 463h62v-700h-100v463zM204 826h350v-68h-350v68z" />
    <glyph glyph-name="uni04E3" unicode="&#x4e3;" horiz-adv-x="631" 
d="M451 300l14 104h-11l-49 -98l-246 -306h-71v525h92v-310l-7 -92h11l46 89l241 313h72v-525h-92v300zM143 666h328v-69h-328v69z" />
    <glyph glyph-name="uni04E4" unicode="&#x4e4;" horiz-adv-x="744" 
d="M555 463l6 77h-4l-48 -79l-359 -461h-61v700h100v-466l-9 -76h5l50 79l358 463h62v-700h-100v463zM203 795q0 23 16.5 36t45.5 13q28 0 45 -13t17 -36q0 -22 -17 -35.5t-45 -13.5q-29 0 -45.5 13.5t-16.5 35.5zM417 795q0 23 16.5 36t44.5 13q29 0 46 -13t17 -36
q0 -22 -17 -35.5t-46 -13.5q-28 0 -44.5 13.5t-16.5 35.5z" />
    <glyph glyph-name="uni04E5" unicode="&#x4e5;" horiz-adv-x="631" 
d="M451 300l14 104h-11l-49 -98l-246 -306h-71v525h92v-310l-7 -92h11l46 89l241 313h72v-525h-92v300zM143 634q0 24 16 40t42 16q25 0 40.5 -16t15.5 -40q0 -23 -15.5 -39t-40.5 -16q-26 0 -42 16t-16 39zM358 634q0 24 15.5 40t41.5 16t41.5 -16t15.5 -40
q0 -23 -15.5 -39t-41.5 -16t-41.5 16t-15.5 39z" />
    <glyph glyph-name="uni04E6" unicode="&#x4e6;" horiz-adv-x="747" 
d="M58 350q0 86 21.5 153.5t62 114t99 71t132.5 24.5q79 0 138.5 -26.5t99 -74t59 -114.5t19.5 -148q0 -86 -21.5 -153.5t-62.5 -114t-99.5 -71t-132.5 -24.5q-80 0 -139 26.5t-98 74t-58.5 114.5t-19.5 148zM164 350q0 -57 12.5 -107t38 -88t65 -60t93.5 -22q97 0 153.5 67
t56.5 210q0 56 -12.5 106t-38 88t-65 60.5t-94.5 22.5q-96 0 -152.5 -68t-56.5 -209zM204 795q0 23 16.5 36t45.5 13q28 0 45 -13t17 -36q0 -22 -17 -35.5t-45 -13.5q-29 0 -45.5 13.5t-16.5 35.5zM418 795q0 23 16.5 36t44.5 13q29 0 46 -13t17 -36q0 -22 -17 -35.5
t-46 -13.5q-28 0 -44.5 13.5t-16.5 35.5z" />
    <glyph glyph-name="uni04E7" unicode="&#x4e7;" horiz-adv-x="631" 
d="M60 262q0 65 17 116.5t50 87.5t80.5 55t108.5 19q64 0 112 -21t80 -58.5t47.5 -88t15.5 -110.5q0 -64 -17.5 -115t-50 -87t-80 -55t-107.5 -19q-66 0 -114 21t-79.5 58t-47 87.5t-15.5 109.5zM158 262q0 -37 8.5 -72.5t27.5 -63.5t49 -45t74 -17q156 0 156 198
q0 39 -8.5 75t-27 63.5t-48.5 44.5t-72 17q-78 0 -118.5 -49.5t-40.5 -150.5zM149 634q0 24 16 40t42 16q25 0 40.5 -16t15.5 -40q0 -23 -15.5 -39t-40.5 -16q-26 0 -42 16t-16 39zM364 634q0 24 15.5 40t41.5 16t41.5 -16t15.5 -40q0 -23 -15.5 -39t-41.5 -16t-41.5 16
t-15.5 39z" />
    <glyph glyph-name="uni04E8" unicode="&#x4e8;" horiz-adv-x="747" 
d="M58 350q0 86 21.5 153.5t62 114t99 71t132.5 24.5q79 0 138.5 -26.5t99 -74t59 -114.5t19.5 -148q0 -86 -21.5 -153.5t-62.5 -114t-99.5 -71t-132.5 -24.5q-80 0 -139 26.5t-98 74t-58.5 114.5t-19.5 148zM164 312q4 -50 18.5 -94t40.5 -76t63 -50.5t87 -18.5
q90 0 146 58t64 181h-419zM583 396q-5 48 -20 90t-41 73.5t-63 49.5t-86 18q-88 0 -143.5 -56.5t-64.5 -174.5h418z" />
    <glyph glyph-name="uni04E9" unicode="&#x4e9;" horiz-adv-x="630" 
d="M60 262q0 132 66 205t190 73q64 0 112 -20.5t79.5 -57.5t47 -88t15.5 -112q0 -131 -66.5 -203.5t-187.5 -72.5q-66 0 -114.5 20.5t-80 57t-46.5 87.5t-15 111zM472 295q-12 83 -52 125t-104 42q-30 0 -57 -8.5t-49 -28.5t-36 -52t-17 -78h315zM158 229q8 -78 51.5 -121.5
t106.5 -43.5q28 0 54 9t47 28.5t35 51t18 76.5h-312z" />
    <glyph glyph-name="uni04EA" unicode="&#x4ea;" horiz-adv-x="747" 
d="M58 350q0 86 21.5 153.5t62 114t99 71t132.5 24.5q79 0 138.5 -26.5t99 -74t59 -114.5t19.5 -148q0 -86 -21.5 -153.5t-62.5 -114t-99.5 -71t-132.5 -24.5q-80 0 -139 26.5t-98 74t-58.5 114.5t-19.5 148zM164 312q4 -50 18.5 -94t40.5 -76t63 -50.5t87 -18.5
q90 0 146 58t64 181h-419zM583 396q-5 48 -20 90t-41 73.5t-63 49.5t-86 18q-88 0 -143.5 -56.5t-64.5 -174.5h418zM204 795q0 23 16.5 36t45.5 13q28 0 45 -13t17 -36q0 -22 -17 -35.5t-45 -13.5q-29 0 -45.5 13.5t-16.5 35.5zM418 795q0 23 16.5 36t44.5 13q29 0 46 -13
t17 -36q0 -22 -17 -35.5t-46 -13.5q-28 0 -44.5 13.5t-16.5 35.5z" />
    <glyph glyph-name="uni04EB" unicode="&#x4eb;" horiz-adv-x="630" 
d="M60 262q0 132 66 205t190 73q64 0 112 -20.5t79.5 -57.5t47 -88t15.5 -112q0 -131 -66.5 -203.5t-187.5 -72.5q-66 0 -114.5 20.5t-80 57t-46.5 87.5t-15 111zM472 295q-12 83 -52 125t-104 42q-30 0 -57 -8.5t-49 -28.5t-36 -52t-17 -78h315zM158 229q8 -78 51.5 -121.5
t106.5 -43.5q28 0 54 9t47 28.5t35 51t18 76.5h-312zM152 634q0 24 16 40t42 16q25 0 40.5 -16t15.5 -40q0 -23 -15.5 -39t-40.5 -16q-26 0 -42 16t-16 39zM367 634q0 24 15.5 40t41.5 16t41.5 -16t15.5 -40q0 -23 -15.5 -39t-41.5 -16t-41.5 16t-15.5 39z" />
    <glyph glyph-name="uni04EC" unicode="&#x4ec;" horiz-adv-x="631" 
d="M161 399h305q-10 116 -73 171.5t-163 56.5q-53 1 -94 -10t-65 -25l-24 80q33 19 84.5 30t108.5 11q70 0 130.5 -20t105.5 -63.5t71 -112.5t26 -167q0 -99 -30 -168t-79.5 -112.5t-114 -63t-133.5 -19.5q-55 0 -98.5 8.5t-72.5 19.5l26 86q25 -12 65.5 -20t86.5 -8
q43 0 85 12.5t75.5 41t56 74.5t27.5 112h-306v86zM79 795q0 23 16.5 36t45.5 13q28 0 45 -13t17 -36q0 -22 -17 -35.5t-45 -13.5q-29 0 -45.5 13.5t-16.5 35.5zM293 795q0 23 16.5 36t44.5 13q29 0 46 -13t17 -36q0 -22 -17 -35.5t-46 -13.5q-28 0 -44.5 13.5t-16.5 35.5z
" />
    <glyph glyph-name="uni04ED" unicode="&#x4ed;" horiz-adv-x="543" 
d="M143 304h241q-6 72 -47.5 115t-119.5 43q-47 0 -81.5 -12.5t-57.5 -26.5l-30 68q35 23 81 36t108 13q63 0 109.5 -19t77 -55t45 -87.5t14.5 -116.5q0 -134 -68 -205t-187 -71q-54 0 -102 8.5t-78 25.5l25 76q27 -14 65 -23t76 -9q81 0 122.5 38.5t48.5 123.5h-242v78z
M61 634q0 24 16 40t42 16q25 0 40.5 -16t15.5 -40q0 -23 -15.5 -39t-40.5 -16q-26 0 -42 16t-16 39zM276 634q0 24 15.5 40t41.5 16t41.5 -16t15.5 -40q0 -23 -15.5 -39t-41.5 -16t-41.5 16t-15.5 39z" />
    <glyph glyph-name="uni04EE" unicode="&#x4ee;" horiz-adv-x="608" 
d="M311 340l27 -89h6l21 92l142 357h102l-196 -462q-29 -67 -51 -113.5t-45.5 -75.5t-50.5 -42t-66 -13q-36 0 -57.5 5.5t-41.5 17.5l29 82q21 -12 39.5 -14.5t34.5 -2.5q29 0 49.5 25.5t36.5 76.5l-285 516h115zM149 826h350v-68h-350v68z" />
    <glyph glyph-name="uni04EF" unicode="&#x4ef;" horiz-adv-x="531" 
d="M251 193l31 -101h13l25 102l109 331h94l-172 -475q-19 -49 -38.5 -95t-43 -81.5t-52 -57t-65.5 -21.5q-40 0 -68 9l15 78q15 -5 30 -5q20 0 36.5 5t30.5 18t25.5 36.5t21.5 60.5l-235 528h109zM102 666h328v-69h-328v69z" />
    <glyph glyph-name="uni04F0" unicode="&#x4f0;" horiz-adv-x="608" 
d="M311 340l27 -89h6l21 92l142 357h102l-196 -462q-29 -67 -51 -113.5t-45.5 -75.5t-50.5 -42t-66 -13q-36 0 -57.5 5.5t-41.5 17.5l29 82q21 -12 39.5 -14.5t34.5 -2.5q29 0 49.5 25.5t36.5 76.5l-285 516h115zM155 795q0 23 16.5 36t45.5 13q28 0 45 -13t17 -36
q0 -22 -17 -35.5t-45 -13.5q-29 0 -45.5 13.5t-16.5 35.5zM369 795q0 23 16.5 36t44.5 13q29 0 46 -13t17 -36q0 -22 -17 -35.5t-46 -13.5q-28 0 -44.5 13.5t-16.5 35.5z" />
    <glyph glyph-name="uni04F1" unicode="&#x4f1;" horiz-adv-x="531" 
d="M251 193l31 -101h13l25 102l109 331h94l-172 -475q-19 -49 -38.5 -95t-43 -81.5t-52 -57t-65.5 -21.5q-40 0 -68 9l15 78q15 -5 30 -5q20 0 36.5 5t30.5 18t25.5 36.5t21.5 60.5l-235 528h109zM114 634q0 24 16 40t42 16q25 0 40.5 -16t15.5 -40q0 -23 -15.5 -39
t-40.5 -16q-26 0 -42 16t-16 39zM329 634q0 24 15.5 40t41.5 16t41.5 -16t15.5 -40q0 -23 -15.5 -39t-41.5 -16t-41.5 16t-15.5 39z" />
    <glyph glyph-name="uni04F2" unicode="&#x4f2;" horiz-adv-x="608" 
d="M311 340l27 -89h6l21 92l142 357h102l-196 -462q-29 -67 -51 -113.5t-45.5 -75.5t-50.5 -42t-66 -13q-36 0 -57.5 5.5t-41.5 17.5l29 82q21 -12 39.5 -14.5t34.5 -2.5q29 0 49.5 25.5t36.5 76.5l-285 516h115zM256 850h108v-16l-109 -93h-68zM439 850h115v-16l-157 -93
h-69z" />
    <glyph glyph-name="uni04F3" unicode="&#x4f3;" horiz-adv-x="531" 
d="M251 193l31 -101h13l25 102l109 331h94l-172 -475q-19 -49 -38.5 -95t-43 -81.5t-52 -57t-65.5 -21.5q-40 0 -68 9l15 78q15 -5 30 -5q20 0 36.5 5t30.5 18t25.5 36.5t21.5 60.5l-235 528h109zM208 739h90v-12l-80 -117h-49zM383 739h101v-11l-132 -118h-51z" />
    <glyph glyph-name="uni04F4" unicode="&#x4f4;" horiz-adv-x="663" 
d="M176 700v-221q0 -67 32 -103.5t101 -36.5q51 0 94.5 12t70.5 32v317h100v-700h-100v298q-29 -16 -77.5 -30.5t-111.5 -14.5q-47 0 -85.5 11t-66 36t-42.5 63.5t-15 94.5v242h100zM167 795q0 23 16.5 36t45.5 13q28 0 45 -13t17 -36q0 -22 -17 -35.5t-45 -13.5
q-29 0 -45.5 13.5t-16.5 35.5zM381 795q0 23 16.5 36t44.5 13q29 0 46 -13t17 -36q0 -22 -17 -35.5t-46 -13.5q-28 0 -44.5 13.5t-16.5 35.5z" />
    <glyph glyph-name="uni04F5" unicode="&#x4f5;" horiz-adv-x="574" 
d="M152 525v-129q0 -32 3.5 -57t15 -43t32 -27.5t53.5 -9.5q51 0 85.5 11.5t52.5 25.5v229h92v-525h-92v223q-19 -12 -58 -27t-104 -15q-42 0 -74.5 9t-54 31t-32.5 58.5t-11 91.5v154h92zM107 634q0 24 16 40t42 16q25 0 40.5 -16t15.5 -40q0 -23 -15.5 -39t-40.5 -16
q-26 0 -42 16t-16 39zM322 634q0 24 15.5 40t41.5 16t41.5 -16t15.5 -40q0 -23 -15.5 -39t-41.5 -16t-41.5 16t-15.5 39z" />
    <glyph glyph-name="uni04F6" unicode="&#x4f6;" horiz-adv-x="486" 
d="M89 700h415v-88h-315v-524h96v-216h-69l-16 128h-111v700z" />
    <glyph glyph-name="uni04F7" unicode="&#x4f7;" horiz-adv-x="426" 
d="M88 525h338v-78h-246v-369h81v-202h-65l-16 124h-92v525z" />
    <glyph glyph-name="uni04F8" unicode="&#x4f8;" horiz-adv-x="846" 
d="M657 700h100v-700h-100v700zM89 700h100v-267q6 1 16 2.5t22.5 2.5t26 2t26.5 1q52 0 101 -10t87 -34.5t60.5 -65.5t22.5 -103q0 -60 -21.5 -105t-59.5 -74t-91 -43.5t-117 -14.5q-15 0 -36 0.5t-44.5 2.5t-47.5 5t-45 8v693zM270 77q37 0 69 9t55.5 27t37 45t13.5 63
q0 40 -15 66t-39.5 41t-57 21t-68.5 6q-19 0 -42 -3t-34 -6v-263q14 -4 34.5 -5t46.5 -1zM254 795q0 23 16.5 36t45.5 13q28 0 45 -13t17 -36q0 -22 -17 -35.5t-45 -13.5q-29 0 -45.5 13.5t-16.5 35.5zM468 795q0 23 16.5 36t44.5 13q29 0 46 -13t17 -36q0 -22 -17 -35.5
t-46 -13.5q-28 0 -44.5 13.5t-16.5 35.5z" />
    <glyph glyph-name="uni04F9" unicode="&#x4f9;" horiz-adv-x="771" 
d="M180 78q42 -6 86 -6q72 0 101 25t29 71q0 40 -28.5 67t-98.5 27q-19 0 -42.5 -1.5t-46.5 -6.5v-176zM180 324q32 5 59.5 6.5t49.5 1.5q58 0 97.5 -12t63.5 -33t34 -49.5t10 -61.5q0 -95 -58 -138.5t-189 -43.5q-42 0 -81 1t-78 4v526h92v-201zM591 525h92v-525h-92v525z
M213 634q0 24 16 40t42 16q25 0 40.5 -16t15.5 -40q0 -23 -15.5 -39t-40.5 -16q-26 0 -42 16t-16 39zM428 634q0 24 15.5 40t41.5 16t41.5 -16t15.5 -40q0 -23 -15.5 -39t-41.5 -16t-41.5 16t-15.5 39z" />
    <glyph glyph-name="uni04FC" unicode="&#x4fc;" horiz-adv-x="681" 
d="M521 -37q0 46 -18 81.5t-38 64.5l-96 135l-33 61l-28 -61l-171 -244h-110l253 356l-231 344h119l151 -230l27 -58l26 58l158 230h110l-238 -337l151 -215q34 -47 50 -87t16 -82q0 -93 -38 -141t-116 -48q-19 0 -40 3v85q31 -1 49.5 5.5t29 18t14 27.5t3.5 34z" />
    <glyph glyph-name="uni04FD" unicode="&#x4fd;" horiz-adv-x="592" 
d="M468 127q32 -40 50.5 -75t18.5 -75q0 -91 -42 -139t-124 -48h-7q-8 0 -15 0.5t-15 1.5v76q63 0 87 24t24 70q0 40 -19.5 68t-42.5 57l-51 65l-43 69l-39 -71l-115 -150h-105l203 268l-190 257h116l101 -136l39 -68l39 68l104 136h105l-193 -252z" />
    <glyph glyph-name="uni0510" unicode="&#x510;" horiz-adv-x="582" 
d="M395 325h-24t-23 -1q-81 -5 -128 -34t-47 -86q0 -33 13.5 -58t38 -41t58 -24t74.5 -8q48 0 91 11.5t67 25.5l29 -75q-27 -17 -78.5 -32.5t-123.5 -15.5q-61 0 -111.5 12.5t-87 38.5t-56.5 65t-20 93q0 72 42 119t120 57v4q-35 10 -61 27.5t-43 39.5t-25.5 46.5t-8.5 49.5
q0 45 20 78t54.5 54t80 31t97.5 10q30 0 59.5 -3.5t55 -9.5t46 -13t31.5 -14l-28 -78q-15 6 -33.5 11.5t-39 10t-42 7.5t-41.5 3q-71 0 -113 -22.5t-42 -75.5q0 -26 12.5 -46t33 -35t46.5 -24.5t53 -13.5q18 -3 44 -3.5t46 -0.5h19v-80h-55z" />
    <glyph glyph-name="uni0511" unicode="&#x511;" horiz-adv-x="530" 
d="M303 233q-81 0 -116 -20.5t-35 -58.5q0 -39 36.5 -62t107.5 -23q85 0 146 35l24 -72q-29 -16 -70 -28.5t-96 -12.5q-121 0 -180.5 41.5t-59.5 111.5q0 52 28.5 82.5t92.5 47.5v10q-49 15 -74 47t-25 71q0 64 51 98.5t138 34.5q64 0 111 -14t82 -34l-25 -67
q-25 11 -61.5 24t-77.5 13q-63 0 -93.5 -17t-30.5 -59q0 -17 9.5 -31.5t25.5 -25t36.5 -16.5t42.5 -6h76v-69h-63z" />
    <glyph glyph-name="uni0512" unicode="&#x512;" horiz-adv-x="683" 
d="M594 -24q0 -92 -35 -139t-112 -47q-19 0 -40 3v85q31 -1 48.5 4.5t26 19.5t10.5 38t2 60v612h-220q-11 -197 -29 -326.5t-57 -202.5q-26 -48 -59.5 -68t-70.5 -20q-21 0 -34.5 2.5t-27.5 7.5l12 85q23 -7 48 0t48 45q15 25 28 69.5t23 112.5t17 162.5t10 220.5h412v-724z
" />
    <glyph glyph-name="uni0513" unicode="&#x513;" horiz-adv-x="584" 
d="M496 525v-549q0 -93 -33.5 -137.5t-109.5 -44.5q-20 0 -42 3v75q31 -1 49 6.5t28 23t13 40.5t3 58v447h-170l-2 -30q-7 -99 -16.5 -177.5t-27.5 -133t-48 -83t-78 -28.5q-22 0 -39 2.5t-29 7.5l14 84q13 -4 29 -4q24 0 43 17.5t33 65.5t23 134t13 223h347z" />
    <glyph glyph-name="uni051C" unicode="&#x51c;" horiz-adv-x="913" 
d="M247 246l16 -117h2l18 119l155 452h50l156 -454l18 -117h2l19 119l124 452h98l-213 -710h-57l-153 455l-21 106h-5l-20 -107l-153 -454h-58l-217 710h105z" />
    <glyph glyph-name="uni051D" unicode="&#x51d;" horiz-adv-x="840" 
d="M468 525l86 -199l43 -101l27 -101h7l23 104l98 297h88l-191 -536h-50l-147 339v-1l-26 97l-30 -98v1l-141 -338h-48l-199 536h101l111 -297l19 -105h9l28 107l121 295h71z" />
    <glyph glyph-name="uni0524" unicode="&#x524;" horiz-adv-x="757" 
d="M530 612h-341v-612h-100v700h541v-612h98v-216h-69l-16 128h-113v612z" />
    <glyph glyph-name="uni0525" unicode="&#x525;" horiz-adv-x="620" 
d="M438 447h-258v-447h-92v525h442v-447h70v-202h-65l-16 124h-81v447z" />
    <glyph glyph-name="uni0526" unicode="&#x526;" horiz-adv-x="702" 
d="M486 0v228q0 133 -132 133q-51 0 -94.5 -12t-70.5 -33v-316h-100v700h100v-298q29 16 77 30.5t111 14.5q46 0 84 -10.5t66 -33.5t43.5 -60.5t15.5 -92.5v-162h96v-216h-69l-16 128h-111z" />
    <glyph glyph-name="uni0527" unicode="&#x527;" horiz-adv-x="638" 
d="M180 700v-240h11q30 36 72 58t104 22q48 0 83 -10.5t58 -37t34 -71t11 -111.5v-232h65v-202h-65l-16 124h-76v290q0 43 -5.5 74.5t-20 52.5t-39 31t-61.5 10q-26 0 -51 -9t-46 -25t-36 -38.5t-22 -50.5v-335h-92v700h92z" />
    <glyph glyph-name="uni1E30" unicode="&#x1e30;" horiz-adv-x="669" 
d="M238 318h-49v-318h-100v700h100v-322l46 14l252 308h114l-252 -300l-47 -34l55 -40l278 -326h-126zM340 870h132v-23l-178 -95h-81z" />
    <glyph glyph-name="uni1E31" unicode="&#x1e31;" horiz-adv-x="557" 
d="M237 236h-57v-236h-92v700h92v-414l52 17l174 222h108l-167 -203h1l-55 -40l63 -45l185 -237h-116zM327 720h104v-23l-112 -127h-56z" />
    <glyph glyph-name="uni1E3E" unicode="&#x1e3e;" horiz-adv-x="868" 
d="M679 451l11 112h-4l-43 -97l-195 -310h-30l-205 311l-41 95h-5l16 -110v-452h-94v700h75l237 -357l37 -76h2l35 78l225 355h79v-700h-100v451zM486 870h132v-23l-178 -95h-81z" />
    <glyph glyph-name="uni1E3F" unicode="&#x1e3f;" horiz-adv-x="948" 
d="M428 0v288q0 42 -4 74t-16 53.5t-33.5 32t-55.5 10.5q-53 0 -88.5 -29.5t-50.5 -75.5v-353h-92v525h63l18 -70h10q32 36 73.5 60.5t105.5 24.5q54 0 90.5 -23t55.5 -77q30 46 76 73t103 27q48 0 81.5 -11t54.5 -38t31 -73t10 -116v-302h-92v302q0 40 -4.5 69t-16.5 48.5
t-33.5 29t-56.5 9.5q-57 0 -90 -30t-47 -90v-338h-92zM496 720h104v-23l-112 -127h-56z" />
    <glyph glyph-name="uni1E54" unicode="&#x1e54;" horiz-adv-x="614" 
d="M89 693q42 9 91.5 12.5t97.5 3.5q51 0 103.5 -9t95.5 -33t70.5 -66.5t27.5 -109.5q0 -63 -25 -107.5t-66.5 -72.5t-95 -41t-110.5 -13q-6 0 -18.5 0.5t-26 1t-26 1.5t-18.5 2v-262h-100v693zM281 623q-27 0 -52.5 -1t-39.5 -5v-269q5 -2 16.5 -2.5t24 -1.5t24 -1h17.5
q36 0 71 5.5t63.5 21.5t46 45t17.5 75q0 40 -17 66t-44 41t-60.5 20.5t-66.5 5.5zM344 870h132v-23l-178 -95h-81z" />
    <glyph glyph-name="uni1E55" unicode="&#x1e55;" horiz-adv-x="630" 
d="M88 525h62l18 -67h9q27 39 70 60.5t97 21.5q114 0 170 -63.5t56 -202.5q0 -66 -18.5 -119.5t-53 -91t-84 -57.5t-110.5 -20q-20 0 -36.5 1.5t-30.5 5t-28 8t-29 10.5v-211h-92v725zM323 462q-60 0 -94 -30t-49 -92v-242q23 -16 50 -25t69 -9q81 0 127 53t46 158
q0 85 -34 136t-115 51zM327 720h104v-23l-112 -127h-56z" />
    <glyph glyph-name="uni1E9E" unicode="&#x1e9e;" horiz-adv-x="716" 
d="M469 593q-19 17 -62 27t-91 10q-47 0 -73 -16.5t-38 -44.5t-14 -64t-2 -75v-430h-100v467q0 51 10 95.5t35.5 77.5t70.5 52.5t116 19.5q48 0 85.5 -5.5t70 -16.5t61 -28t58.5 -40l-172 -190l-37 -28v-3l37 7q45 0 84.5 -12t68 -36.5t45 -61t16.5 -84.5q0 -54 -17.5 -96
t-49.5 -71t-77.5 -44.5t-101.5 -15.5q-11 0 -29 1.5t-38 4t-39 6.5t-31 9l17 86q10 -5 26 -9t33 -6t33 -3t28 -1q64 0 102 34.5t38 97.5q0 33 -9 57t-29.5 39.5t-54.5 23t-84 7.5h-66v65z" />
    <glyph glyph-name="uni2011" unicode="&#x2011;" horiz-adv-x="394" 
d="M64 332h266v-86h-266v86z" />
    <glyph glyph-name="endash" unicode="&#x2013;" horiz-adv-x="724" 
d="M128 331h468v-86h-468v86z" />
    <glyph glyph-name="emdash" unicode="&#x2014;" horiz-adv-x="899" 
d="M128 331h643v-86h-643v86z" />
    <glyph glyph-name="quoteleft" unicode="&#x2018;" horiz-adv-x="217" 
d="M174 619q0 -24 -17 -38t-43 -14q-32 0 -51 19t-19 56q0 34 10.5 59t25.5 41.5t32 26.5t30 14l27 -40q-24 -11 -39 -29t-13 -44q26 5 41.5 -10t15.5 -41z" />
    <glyph glyph-name="quoteright" unicode="&#x2019;" horiz-adv-x="217" 
d="M44 655q0 24 16.5 38.5t42.5 14.5q32 0 51.5 -19t19.5 -56q0 -35 -11 -60t-26.5 -42t-32.5 -26.5t-29 -13.5l-28 41q24 11 39.5 28.5t14.5 43.5q-26 -5 -41.5 10t-15.5 41z" />
    <glyph glyph-name="quotesinglbase" unicode="&#x201a;" horiz-adv-x="217" 
d="M44 51q0 24 16.5 38.5t42.5 14.5q32 0 51.5 -19t19.5 -56q0 -35 -11 -60t-26.5 -42t-32.5 -26.5t-29 -13.5l-28 41q24 11 39.5 28.5t14.5 43.5q-26 -5 -41.5 10t-15.5 41z" />
    <glyph glyph-name="quotedblleft" unicode="&#x201c;" horiz-adv-x="379" 
d="M336 619q0 -24 -17 -38t-43 -14q-32 0 -51 19t-19 56q0 34 10.5 59t25.5 41.5t32 26.5t30 14l27 -40q-24 -11 -39 -29t-13 -44q26 5 41.5 -10t15.5 -41zM174 619q0 -24 -17 -38t-43 -14q-32 0 -51 19t-19 56q0 34 10.5 59t25.5 41.5t32 26.5t30 14l27 -40
q-24 -11 -39 -29t-13 -44q26 5 41.5 -10t15.5 -41z" />
    <glyph glyph-name="quotedblright" unicode="&#x201d;" horiz-adv-x="379" 
d="M206 654q0 24 16.5 38.5t42.5 14.5q32 0 51.5 -19t19.5 -56q0 -35 -11 -60t-26.5 -42t-32.5 -26.5t-29 -13.5l-28 41q24 11 39.5 28.5t14.5 43.5q-26 -5 -41.5 10t-15.5 41zM44 654q0 24 16.5 38.5t42.5 14.5q32 0 51.5 -19t19.5 -56q0 -35 -11 -60t-26.5 -42
t-32.5 -26.5t-29 -13.5l-28 41q24 11 39.5 28.5t14.5 43.5q-26 -5 -41.5 10t-15.5 41z" />
    <glyph glyph-name="quotedblbase" unicode="&#x201e;" horiz-adv-x="379" 
d="M44 51q0 24 16.5 38.5t42.5 14.5q32 0 51.5 -19t19.5 -56q0 -35 -11 -60t-26.5 -42t-32.5 -26.5t-29 -13.5l-28 41q24 11 39.5 28.5t14.5 43.5q-26 -5 -41.5 10t-15.5 41zM206 51q0 24 16.5 38.5t42.5 14.5q32 0 51.5 -19t19.5 -56q0 -35 -11 -60t-26.5 -42t-32.5 -26.5
t-29 -13.5l-28 41q24 11 39.5 28.5t14.5 43.5q-26 -5 -41.5 10t-15.5 41z" />
    <glyph glyph-name="dagger" unicode="&#x2020;" horiz-adv-x="535" 
d="M44 506h141l49 -12l-12 48v158h92v-158l-13 -48l49 12h141v-84h-143l-47 12l13 -44v-390l-16 -200h-60l-16 201v389l12 44l-49 -12h-141v84z" />
    <glyph glyph-name="daggerdbl" unicode="&#x2021;" horiz-adv-x="535" 
d="M222 392l12 42l-49 -12h-141v84h141l49 -12l-12 47v159h92v-159l-13 -47l49 12h141v-84h-143l-47 12l13 -42v-112l-13 -42l47 12h143v-84h-141l-49 12l13 -47v-131l-17 -200h-58l-17 201v130l12 47l-49 -12h-141v84h141l49 -12l-12 42v112z" />
    <glyph glyph-name="bullet" unicode="&#x2022;" horiz-adv-x="495" 
d="M93 311q0 31 12.5 57t33.5 45t49 29.5t59 10.5t59.5 -10t49.5 -28t33.5 -44.5t12.5 -59.5t-12.5 -59.5t-33.5 -44.5t-49 -28t-59 -10q-32 0 -60 10t-49 28t-33.5 44.5t-12.5 59.5z" />
    <glyph glyph-name="ellipsis" unicode="&#x2026;" horiz-adv-x="820" 
d="M618 51q0 29 18.5 46t48.5 17t48.5 -17t18.5 -46q0 -27 -18.5 -45t-48.5 -18t-48.5 18t-18.5 45zM345 51q0 29 18.5 46t48.5 17t48.5 -17t18.5 -46q0 -27 -18.5 -45t-48.5 -18t-48.5 18t-18.5 45zM72 51q0 29 18.5 46t48.5 17t48.5 -17t18.5 -46q0 -27 -18.5 -45
t-48.5 -18t-48.5 18t-18.5 45z" />
    <glyph glyph-name="perthousand" unicode="&#x2030;" horiz-adv-x="1263" 
d="M74 542q0 44 13 76t36 53t54.5 31t68.5 10t68.5 -9.5t55 -29.5t36.5 -52.5t13 -78.5t-13 -78.5t-36.5 -52.5t-55 -29.5t-68.5 -9.5t-68.5 9.5t-54.5 29.5t-36 52.5t-13 78.5zM162 542q0 -54 21.5 -79.5t62.5 -25.5q40 0 62.5 23t22.5 82q0 60 -22 82.5t-63 22.5
q-40 0 -62 -22.5t-22 -82.5zM469 170q0 44 13 76t36 53t54.5 31t68.5 10t68.5 -9.5t55 -29.5t36.5 -52.5t13 -78.5t-13 -78.5t-36.5 -52.5t-55 -29.5t-68.5 -9.5t-68.5 9.5t-54.5 29.5t-36 52.5t-13 78.5zM557 170q0 -54 21.5 -79.5t62.5 -25.5q40 0 62.5 23t22.5 82
q0 60 -22 82.5t-63 22.5q-40 0 -62 -22.5t-22 -82.5zM863 170q0 44 13 76t36 53t54.5 31t68.5 10t68.5 -9.5t55 -29.5t36.5 -52.5t13 -78.5t-13 -78.5t-36.5 -52.5t-55 -29.5t-68.5 -9.5t-68.5 9.5t-54.5 29.5t-36 52.5t-13 78.5zM951 170q0 -54 21.5 -79.5t62.5 -25.5
q40 0 62.5 23t22.5 82q0 60 -22 82.5t-63 22.5q-40 0 -62 -22.5t-22 -82.5zM702 713l58 -48l-572 -678l-57 49z" />
    <glyph glyph-name="guilsinglleft" unicode="&#x2039;" horiz-adv-x="326" 
d="M40 259l176 230l59 -53l-101 -135l-53 -41l53 -36l108 -132l-60 -54z" />
    <glyph glyph-name="guilsinglright" unicode="&#x203a;" horiz-adv-x="326" 
d="M286 268l-176 -230l-60 52l102 136l53 41l-53 36l-108 133l60 53z" />
    <glyph glyph-name="fraction" unicode="&#x2044;" horiz-adv-x="201" 
d="M333 714l60 -43l-524 -684l-60 45z" />
    <glyph glyph-name="uni2081" unicode="&#x2081;" horiz-adv-x="436" 
d="M80 -28h115v232l8 38l-30 -29l-83 -48l-32 59l168 103h53v-355h102v-72h-301v72z" />
    <glyph glyph-name="uni2082" unicode="&#x2082;" horiz-adv-x="436" 
d="M355 205q0 -30 -10.5 -57t-29 -53t-43.5 -51.5t-53 -51.5l-50 -30v-2l63 13h144v-73h-321v42q25 18 62 48t71 65t58.5 71t24.5 67q0 30 -20.5 44.5t-52.5 14.5q-30 0 -57.5 -10.5t-47.5 -22.5l-27 66q30 20 68.5 31t78.5 11q69 0 105.5 -32.5t36.5 -89.5z" />
    <glyph glyph-name="uni2083" unicode="&#x2083;" horiz-adv-x="436" 
d="M185 -38q107 0 107 69q0 30 -24.5 48.5t-81.5 18.5h-57v26l101 107l38 26l-55 -6h-139v69h285v-40l-110 -115l-29 -18v-3l26 3q61 -1 95 -32.5t34 -85.5q0 -64 -50 -100t-131 -36q-40 0 -69.5 6.5t-52.5 14.5l18 68q19 -8 42.5 -14t52.5 -6z" />
    <glyph glyph-name="uni2084" unicode="&#x2084;" horiz-adv-x="436" 
d="M419 -8h-90v-92h-78v92h-224v45l247 299h55v-277h90v-67zM251 179l7 48h-3l-24 -45l-80 -97l-37 -32l56 6h81v120z" />
    <glyph glyph-name="Euro" unicode="&#x20ac;" 
d="M28 462h69q13 66 42 113.5t69 78t89.5 45t104.5 14.5q57 0 98 -8t71 -19l-27 -80q-25 11 -58.5 17t-81.5 6q-36 0 -69 -9t-60 -29.5t-47.5 -52t-31.5 -76.5h305l-20 -73l-295 -1q-1 -10 -1 -19.5v-19.5v-18t1 -17l273 1l-20 -75h-244q42 -169 224 -169q44 0 78.5 10
t60.5 24l23 -74q-33 -25 -83 -34.5t-98 -9.5q-122 0 -201.5 61.5t-102.5 191.5h-89l21 75h60q-1 8 -1 17v18v19.5t1 19.5h-81z" />
    <glyph glyph-name="uni20B4" unicode="&#x20b4;" 
d="M496 316v-74h-257q-22 -17 -41 -47.5t-19 -58.5q0 -34 30.5 -51.5t100.5 -17.5q52 0 86.5 10t59.5 23l26 -75q-25 -14 -69 -26t-122 -12q-104 0 -156 36.5t-52 103.5q0 17 6 35t14.5 34t33.5 46h-96v74h455zM41 389v74h263q26 19 40.5 48.5t14.5 58.5q0 34 -25 48.5
t-85 14.5q-45 0 -74.5 -10t-55.5 -21l-29 77q16 7 32.5 13.5t36.5 11t46 7t61 2.5q94 0 141.5 -31.5t47.5 -95.5q0 -37 -15 -70.5t-38 -52.5h94v-74h-455z" />
    <glyph glyph-name="uni20B6" unicode="&#x20b6;" 
d="M32 344h79v349q42 9 89.5 12.5t95.5 3.5q52 0 101 -9.5t87 -33.5t61 -65.5t23 -105.5q0 -62 -24 -104t-63 -68t-88.5 -37.5t-100.5 -11.5h-85v-73h182v-70h-182v-131h-96v131h-79v70h79v73h-79v70zM300 627q-27 0 -52.5 -2t-40.5 -4v-277h80q32 0 64 6.5t57.5 23.5
t41.5 46t16 73q0 39 -13 64.5t-35.5 41t-53 22t-64.5 6.5z" />
    <glyph glyph-name="uni20B7" unicode="&#x20b7;" 
d="M32 344h79v349q42 9 89.5 12.5t95.5 3.5q52 0 101 -9.5t87 -33.5t61 -65.5t23 -105.5q0 -62 -24 -104t-63 -68t-88.5 -37.5t-100.5 -11.5h-85v-73h182v-70h-182v-131h-96v131h-79v70h79v73h-79v70zM300 627q-27 0 -52.5 -2t-40.5 -4v-277h80q32 0 64 6.5t57.5 23.5
t41.5 46t16 73q0 39 -13 64.5t-35.5 41t-53 22t-64.5 6.5z" />
    <glyph glyph-name="uni20B9" unicode="&#x20b9;" 
d="M32 344h79v349q42 9 89.5 12.5t95.5 3.5q52 0 101 -9.5t87 -33.5t61 -65.5t23 -105.5q0 -62 -24 -104t-63 -68t-88.5 -37.5t-100.5 -11.5h-85v-73h182v-70h-182v-131h-96v131h-79v70h79v73h-79v70zM300 627q-27 0 -52.5 -2t-40.5 -4v-277h80q32 0 64 6.5t57.5 23.5
t41.5 46t16 73q0 39 -13 64.5t-35.5 41t-53 22t-64.5 6.5z" />
    <glyph glyph-name="uni20BA" unicode="&#x20ba;" 
d="M32 344h79v349q42 9 89.5 12.5t95.5 3.5q52 0 101 -9.5t87 -33.5t61 -65.5t23 -105.5q0 -62 -24 -104t-63 -68t-88.5 -37.5t-100.5 -11.5h-85v-73h182v-70h-182v-131h-96v131h-79v70h79v73h-79v70zM300 627q-27 0 -52.5 -2t-40.5 -4v-277h80q32 0 64 6.5t57.5 23.5
t41.5 46t16 73q0 39 -13 64.5t-35.5 41t-53 22t-64.5 6.5z" />
    <glyph glyph-name="uni20BB" unicode="&#x20bb;" 
d="M32 344h79v349q42 9 89.5 12.5t95.5 3.5q52 0 101 -9.5t87 -33.5t61 -65.5t23 -105.5q0 -62 -24 -104t-63 -68t-88.5 -37.5t-100.5 -11.5h-85v-73h182v-70h-182v-131h-96v131h-79v70h79v73h-79v70zM300 627q-27 0 -52.5 -2t-40.5 -4v-277h80q32 0 64 6.5t57.5 23.5
t41.5 46t16 73q0 39 -13 64.5t-35.5 41t-53 22t-64.5 6.5z" />
    <glyph glyph-name="uni20BC" unicode="&#x20bc;" 
d="M32 344h79v349q42 9 89.5 12.5t95.5 3.5q52 0 101 -9.5t87 -33.5t61 -65.5t23 -105.5q0 -62 -24 -104t-63 -68t-88.5 -37.5t-100.5 -11.5h-85v-73h182v-70h-182v-131h-96v131h-79v70h79v73h-79v70zM300 627q-27 0 -52.5 -2t-40.5 -4v-277h80q32 0 64 6.5t57.5 23.5
t41.5 46t16 73q0 39 -13 64.5t-35.5 41t-53 22t-64.5 6.5z" />
    <glyph glyph-name="uni20BD" unicode="&#x20bd;" 
d="M32 344h79v349q42 9 89.5 12.5t95.5 3.5q52 0 101 -9.5t87 -33.5t61 -65.5t23 -105.5q0 -62 -24 -104t-63 -68t-88.5 -37.5t-100.5 -11.5h-85v-73h182v-70h-182v-131h-96v131h-79v70h79v73h-79v70zM300 627q-27 0 -52.5 -2t-40.5 -4v-277h80q32 0 64 6.5t57.5 23.5
t41.5 46t16 73q0 39 -13 64.5t-35.5 41t-53 22t-64.5 6.5z" />
    <glyph glyph-name="uni20BE" unicode="&#x20be;" 
d="M32 344h79v349q42 9 89.5 12.5t95.5 3.5q52 0 101 -9.5t87 -33.5t61 -65.5t23 -105.5q0 -62 -24 -104t-63 -68t-88.5 -37.5t-100.5 -11.5h-85v-73h182v-70h-182v-131h-96v131h-79v70h79v73h-79v70zM300 627q-27 0 -52.5 -2t-40.5 -4v-277h80q32 0 64 6.5t57.5 23.5
t41.5 46t16 73q0 39 -13 64.5t-35.5 41t-53 22t-64.5 6.5z" />
    <glyph glyph-name="uni20BF" unicode="&#x20bf;" 
d="M32 344h79v349q42 9 89.5 12.5t95.5 3.5q52 0 101 -9.5t87 -33.5t61 -65.5t23 -105.5q0 -62 -24 -104t-63 -68t-88.5 -37.5t-100.5 -11.5h-85v-73h182v-70h-182v-131h-96v131h-79v70h79v73h-79v70zM300 627q-27 0 -52.5 -2t-40.5 -4v-277h80q32 0 64 6.5t57.5 23.5
t41.5 46t16 73q0 39 -13 64.5t-35.5 41t-53 22t-64.5 6.5z" />
    <glyph glyph-name="uni20C0" unicode="&#x20c0;" 
d="M32 344h79v349q42 9 89.5 12.5t95.5 3.5q52 0 101 -9.5t87 -33.5t61 -65.5t23 -105.5q0 -62 -24 -104t-63 -68t-88.5 -37.5t-100.5 -11.5h-85v-73h182v-70h-182v-131h-96v131h-79v70h79v73h-79v70zM300 627q-27 0 -52.5 -2t-40.5 -4v-277h80q32 0 64 6.5t57.5 23.5
t41.5 46t16 73q0 39 -13 64.5t-35.5 41t-53 22t-64.5 6.5z" />
    <glyph glyph-name="uni20C1" unicode="&#x20c1;" 
d="M32 344h79v349q42 9 89.5 12.5t95.5 3.5q52 0 101 -9.5t87 -33.5t61 -65.5t23 -105.5q0 -62 -24 -104t-63 -68t-88.5 -37.5t-100.5 -11.5h-85v-73h182v-70h-182v-131h-96v131h-79v70h79v73h-79v70zM300 627q-27 0 -52.5 -2t-40.5 -4v-277h80q32 0 64 6.5t57.5 23.5
t41.5 46t16 73q0 39 -13 64.5t-35.5 41t-53 22t-64.5 6.5z" />
    <glyph glyph-name="uni20C2" unicode="&#x20c2;" 
d="M32 344h79v349q42 9 89.5 12.5t95.5 3.5q52 0 101 -9.5t87 -33.5t61 -65.5t23 -105.5q0 -62 -24 -104t-63 -68t-88.5 -37.5t-100.5 -11.5h-85v-73h182v-70h-182v-131h-96v131h-79v70h79v73h-79v70zM300 627q-27 0 -52.5 -2t-40.5 -4v-277h80q32 0 64 6.5t57.5 23.5
t41.5 46t16 73q0 39 -13 64.5t-35.5 41t-53 22t-64.5 6.5z" />
    <glyph glyph-name="uni20C3" unicode="&#x20c3;" 
d="M32 344h79v349q42 9 89.5 12.5t95.5 3.5q52 0 101 -9.5t87 -33.5t61 -65.5t23 -105.5q0 -62 -24 -104t-63 -68t-88.5 -37.5t-100.5 -11.5h-85v-73h182v-70h-182v-131h-96v131h-79v70h79v73h-79v70zM300 627q-27 0 -52.5 -2t-40.5 -4v-277h80q32 0 64 6.5t57.5 23.5
t41.5 46t16 73q0 39 -13 64.5t-35.5 41t-53 22t-64.5 6.5z" />
    <glyph glyph-name="uni20C4" unicode="&#x20c4;" 
d="M32 344h79v349q42 9 89.5 12.5t95.5 3.5q52 0 101 -9.5t87 -33.5t61 -65.5t23 -105.5q0 -62 -24 -104t-63 -68t-88.5 -37.5t-100.5 -11.5h-85v-73h182v-70h-182v-131h-96v131h-79v70h79v73h-79v70zM300 627q-27 0 -52.5 -2t-40.5 -4v-277h80q32 0 64 6.5t57.5 23.5
t41.5 46t16 73q0 39 -13 64.5t-35.5 41t-53 22t-64.5 6.5z" />
    <glyph glyph-name="uni20C5" unicode="&#x20c5;" 
d="M32 344h79v349q42 9 89.5 12.5t95.5 3.5q52 0 101 -9.5t87 -33.5t61 -65.5t23 -105.5q0 -62 -24 -104t-63 -68t-88.5 -37.5t-100.5 -11.5h-85v-73h182v-70h-182v-131h-96v131h-79v70h79v73h-79v70zM300 627q-27 0 -52.5 -2t-40.5 -4v-277h80q32 0 64 6.5t57.5 23.5
t41.5 46t16 73q0 39 -13 64.5t-35.5 41t-53 22t-64.5 6.5z" />
    <glyph glyph-name="uni20C6" unicode="&#x20c6;" 
d="M32 344h79v349q42 9 89.5 12.5t95.5 3.5q52 0 101 -9.5t87 -33.5t61 -65.5t23 -105.5q0 -62 -24 -104t-63 -68t-88.5 -37.5t-100.5 -11.5h-85v-73h182v-70h-182v-131h-96v131h-79v70h79v73h-79v70zM300 627q-27 0 -52.5 -2t-40.5 -4v-277h80q32 0 64 6.5t57.5 23.5
t41.5 46t16 73q0 39 -13 64.5t-35.5 41t-53 22t-64.5 6.5z" />
    <glyph glyph-name="uni20C7" unicode="&#x20c7;" 
d="M32 344h79v349q42 9 89.5 12.5t95.5 3.5q52 0 101 -9.5t87 -33.5t61 -65.5t23 -105.5q0 -62 -24 -104t-63 -68t-88.5 -37.5t-100.5 -11.5h-85v-73h182v-70h-182v-131h-96v131h-79v70h79v73h-79v70zM300 627q-27 0 -52.5 -2t-40.5 -4v-277h80q32 0 64 6.5t57.5 23.5
t41.5 46t16 73q0 39 -13 64.5t-35.5 41t-53 22t-64.5 6.5z" />
    <glyph glyph-name="uni20C8" unicode="&#x20c8;" 
d="M32 344h79v349q42 9 89.5 12.5t95.5 3.5q52 0 101 -9.5t87 -33.5t61 -65.5t23 -105.5q0 -62 -24 -104t-63 -68t-88.5 -37.5t-100.5 -11.5h-85v-73h182v-70h-182v-131h-96v131h-79v70h79v73h-79v70zM300 627q-27 0 -52.5 -2t-40.5 -4v-277h80q32 0 64 6.5t57.5 23.5
t41.5 46t16 73q0 39 -13 64.5t-35.5 41t-53 22t-64.5 6.5z" />
    <glyph glyph-name="uni20C9" unicode="&#x20c9;" 
d="M32 344h79v349q42 9 89.5 12.5t95.5 3.5q52 0 101 -9.5t87 -33.5t61 -65.5t23 -105.5q0 -62 -24 -104t-63 -68t-88.5 -37.5t-100.5 -11.5h-85v-73h182v-70h-182v-131h-96v131h-79v70h79v73h-79v70zM300 627q-27 0 -52.5 -2t-40.5 -4v-277h80q32 0 64 6.5t57.5 23.5
t41.5 46t16 73q0 39 -13 64.5t-35.5 41t-53 22t-64.5 6.5z" />
    <glyph glyph-name="uni20CA" unicode="&#x20ca;" 
d="M32 344h79v349q42 9 89.5 12.5t95.5 3.5q52 0 101 -9.5t87 -33.5t61 -65.5t23 -105.5q0 -62 -24 -104t-63 -68t-88.5 -37.5t-100.5 -11.5h-85v-73h182v-70h-182v-131h-96v131h-79v70h79v73h-79v70zM300 627q-27 0 -52.5 -2t-40.5 -4v-277h80q32 0 64 6.5t57.5 23.5
t41.5 46t16 73q0 39 -13 64.5t-35.5 41t-53 22t-64.5 6.5z" />
    <glyph glyph-name="uni20CB" unicode="&#x20cb;" 
d="M32 344h79v349q42 9 89.5 12.5t95.5 3.5q52 0 101 -9.5t87 -33.5t61 -65.5t23 -105.5q0 -62 -24 -104t-63 -68t-88.5 -37.5t-100.5 -11.5h-85v-73h182v-70h-182v-131h-96v131h-79v70h79v73h-79v70zM300 627q-27 0 -52.5 -2t-40.5 -4v-277h80q32 0 64 6.5t57.5 23.5
t41.5 46t16 73q0 39 -13 64.5t-35.5 41t-53 22t-64.5 6.5z" />
    <glyph glyph-name="uni20CC" unicode="&#x20cc;" 
d="M32 344h79v349q42 9 89.5 12.5t95.5 3.5q52 0 101 -9.5t87 -33.5t61 -65.5t23 -105.5q0 -62 -24 -104t-63 -68t-88.5 -37.5t-100.5 -11.5h-85v-73h182v-70h-182v-131h-96v131h-79v70h79v73h-79v70zM300 627q-27 0 -52.5 -2t-40.5 -4v-277h80q32 0 64 6.5t57.5 23.5
t41.5 46t16 73q0 39 -13 64.5t-35.5 41t-53 22t-64.5 6.5z" />
    <glyph glyph-name="uni20CD" unicode="&#x20cd;" 
d="M32 344h79v349q42 9 89.5 12.5t95.5 3.5q52 0 101 -9.5t87 -33.5t61 -65.5t23 -105.5q0 -62 -24 -104t-63 -68t-88.5 -37.5t-100.5 -11.5h-85v-73h182v-70h-182v-131h-96v131h-79v70h79v73h-79v70zM300 627q-27 0 -52.5 -2t-40.5 -4v-277h80q32 0 64 6.5t57.5 23.5
t41.5 46t16 73q0 39 -13 64.5t-35.5 41t-53 22t-64.5 6.5z" />
    <glyph glyph-name="uni20CE" unicode="&#x20ce;" 
d="M32 344h79v349q42 9 89.5 12.5t95.5 3.5q52 0 101 -9.5t87 -33.5t61 -65.5t23 -105.5q0 -62 -24 -104t-63 -68t-88.5 -37.5t-100.5 -11.5h-85v-73h182v-70h-182v-131h-96v131h-79v70h79v73h-79v70zM300 627q-27 0 -52.5 -2t-40.5 -4v-277h80q32 0 64 6.5t57.5 23.5
t41.5 46t16 73q0 39 -13 64.5t-35.5 41t-53 22t-64.5 6.5z" />
    <glyph glyph-name="uni20CF" unicode="&#x20cf;" 
d="M32 344h79v349q42 9 89.5 12.5t95.5 3.5q52 0 101 -9.5t87 -33.5t61 -65.5t23 -105.5q0 -62 -24 -104t-63 -68t-88.5 -37.5t-100.5 -11.5h-85v-73h182v-70h-182v-131h-96v131h-79v70h79v73h-79v70zM300 627q-27 0 -52.5 -2t-40.5 -4v-277h80q32 0 64 6.5t57.5 23.5
t41.5 46t16 73q0 39 -13 64.5t-35.5 41t-53 22t-64.5 6.5z" />
    <glyph glyph-name="afii61289" unicode="&#x2113;" horiz-adv-x="500" 
d="M406 30q-22 -14 -57.5 -28t-70.5 -14q-63 0 -91.5 30.5t-28.5 95.5v104l-50 -44l-35 44l85 74v254q0 44 10 75.5t27.5 51.5t41 29.5t50.5 9.5q48 0 79 -29.5t31 -89.5q0 -74 -40 -157t-131 -171v-140q0 -44 17 -60.5t41 -16.5q25 0 55 10.5t50 21.5zM333 588q0 34 -14 49
t-32 15q-12 0 -23 -3.5t-19.5 -14t-13.5 -29t-5 -48.5v-212q56 65 81.5 125.5t25.5 117.5z" />
    <glyph glyph-name="afii61352" unicode="&#x2116;" horiz-adv-x="1120" 
d="M731 314h309v-84h-309v84zM237 438l-61 100h-4l12 -96v-442h-95v710h57l336 -446l57 -97h5l-12 93v440h95v-710h-57zM710 542q0 44 13 76t36 53t54.5 31t68.5 10t68.5 -9.5t55 -29.5t36.5 -52.5t13 -78.5t-13 -78.5t-36.5 -52.5t-55 -29.5t-68.5 -9.5t-68.5 9.5
t-54.5 29.5t-36 52.5t-13 78.5zM798 542q0 -54 21.5 -79.5t62.5 -25.5q40 0 62.5 23t22.5 82q0 60 -22 82.5t-63 22.5q-40 0 -62 -22.5t-22 -82.5z" />
    <glyph glyph-name="trademark" unicode="&#x2122;" horiz-adv-x="975" 
d="M425 620h-146v-280h-95v280h-146v80h387v-80zM846 502l12 103h-5l-42 -85l-93 -135h-43l-94 134l-40 86h-5l16 -102v-163h-85v360h93l113 -165l30 -59h1l32 61l105 163h94v-360h-89v162z" />
    <glyph glyph-name="estimated" unicode="&#x212e;" horiz-adv-x="600" 
d="M157 263v-181q62 -59 145 -59q124 0 193 120l35 -21q-43 -66 -99 -100.5t-129 -34.5q-59 0 -107 21.5t-81.5 58.5t-51.5 87.5t-18 108.5q0 59 18.5 109.5t52.5 87.5t81.5 58t105.5 21q62 0 109.5 -22t80.5 -59.5t50 -87.5t19 -107h-404zM448 299v145q-63 60 -147 60
q-86 0 -144 -60v-145h291z" />
    <glyph glyph-name="partialdiff" unicode="&#x2202;" horiz-adv-x="586" 
d="M455 503q-6 51 -32 85.5t-62.5 56t-80.5 30t-86 6.5q0 2 1 5t2.5 10t4.5 20t9 36q77 0 140 -15.5t107.5 -52.5t68.5 -98t24 -151q0 -115 -23 -199.5t-63.5 -140t-96.5 -82.5t-122 -27q-110 0 -166 53.5t-56 149.5q0 60 19 121t57 110.5t95 80.5t134 31q47 0 70.5 -7.5
t43.5 -21.5h12zM456 403q-23 24 -53.5 39t-79.5 15q-42 0 -79 -21t-64 -57t-42.5 -85.5t-15.5 -106.5q0 -25 7 -48t22.5 -40.5t40.5 -28t61 -10.5q59 0 98 32t62.5 81.5t33 110.5t9.5 119z" />
    <glyph glyph-name="product" unicode="&#x220f;" horiz-adv-x="739" 
d="M551 612h-363v-812h-100v900h563v-900h-100v812z" />
    <glyph glyph-name="summation" unicode="&#x2211;" horiz-adv-x="554" 
d="M145 -74l-44 -38h414v-88h-500v88l237 331l40 31l-41 33l-236 329v88h500v-88h-408l47 -38l228 -318z" />
    <glyph glyph-name="minus" unicode="&#x2212;" horiz-adv-x="554" 
d="M43 379h468v-84h-468v84z" />
    <glyph glyph-name="uni2215" unicode="&#x2215;" horiz-adv-x="554" 
d="M509 714l60 -43l-524 -684l-60 45z" />
    <glyph glyph-name="radical" unicode="&#x221a;" horiz-adv-x="554" 
d="M187 453l99 -226l24 -106h2l22 108l156 471h91l-248 -710h-40l-170 377h-132v86h196z" />
    <glyph glyph-name="infinity" unicode="&#x221e;" horiz-adv-x="934" 
d="M460 281q-39 -59 -95.5 -90t-120.5 -31q-38 0 -71.5 13t-59.5 37t-41 58.5t-15 77.5q0 45 14.5 81.5t41 62t62 39t77.5 13.5q77 0 132 -31t90 -79q48 60 105.5 85t120.5 25q38 0 70.5 -13t56.5 -37t37.5 -58.5t13.5 -76.5q0 -45 -15 -81.5t-41.5 -62t-62.5 -39.5t-79 -14
q-38 0 -71 10t-60.5 26.5t-49.5 38.5t-39 46zM682 246q21 0 40 7.5t33 21.5t22.5 34t8.5 45q0 20 -6.5 38.5t-20 32.5t-33.5 22.5t-47 8.5q-42 0 -87.5 -20.5t-82.5 -65.5q13 -26 31.5 -48.5t40.5 -39t47.5 -26.5t53.5 -10zM253 456q-21 0 -40 -8t-33 -22.5t-22.5 -34
t-8.5 -42.5q0 -45 31.5 -74t83.5 -29q46 0 89 27t72 67q-29 54 -72 85t-100 31z" />
    </font>
</defs>
</svg>
