<?xml version="1.0" standalone="no"?>
<!DOCTYPE svg PUBLIC "-//W3C//DTD SVG 1.1//EN" "http://www.w3.org/Graphics/SVG/1.1/DTD/svg11.dtd" >
<svg xmlns="http://www.w3.org/2000/svg" xmlns:xlink="http://www.w3.org/1999/xlink" version="1.1">
<metadata>
Created by FontForge 20160407 at Tue Aug  9 17:20:17 2016
 By Jimmy Wärting
Generated in 2013 by FontLab Studio. Copyright info pending.
</metadata>
<defs>
<font id="CircularStd-Book" horiz-adv-x="560" >
  <font-face 
    font-family="Circular Std Book"
    font-weight="450"
    font-stretch="normal"
    units-per-em="1000"
    panose-1="2 11 6 4 2 1 1 2 1 2"
    ascent="809"
    descent="-191"
    x-height="481"
    cap-height="709"
    bbox="-46 -232 1487 958"
    underline-thickness="80"
    underline-position="-195"
    stemh="88"
    stemv="96"
    unicode-range="U+000D-FEFF"
  />
<missing-glyph horiz-adv-x="562" 
d="M80 0v709h402v-709h-402zM159 79h244v551h-244v-551z" />
    <glyph glyph-name="f_f" unicode="ff" horiz-adv-x="659" 
d="M598 639c-33 0 -76 -16 -76 -82v-76h116v-85h-116v-396h-97v396h-219v-396h-97v396h-89v85h89v81c0 107 71 165 158 165c32 0 52 -7 56 -10v-84c-5 2 -17 6 -41 6c-33 0 -76 -16 -76 -82v-76h219v81c0 107 71 165 158 165c32 0 52 -7 56 -10v-84c-5 2 -17 6 -41 6z" />
    <glyph glyph-name="f_f_i" unicode="ffi" horiz-adv-x="920" 
d="M109 481v81c0 107 71 165 158 165c32 0 52 -7 56 -10v-84c-5 2 -17 6 -41 6c-33 0 -76 -16 -76 -82v-76h219v81c0 107 71 165 158 165c32 0 52 -7 56 -10v-84c-5 2 -17 6 -41 6c-33 0 -76 -16 -76 -82v-76h318v-481h-93v396h-225v-396h-97v396h-219v-396h-97v396h-89v85
h89zM726 665c0 38 30 68 67 68c38 0 68 -30 68 -68c0 -37 -30 -67 -68 -67c-37 0 -67 30 -67 67z" />
    <glyph glyph-name="f_f_l" unicode="ffl" horiz-adv-x="920" 
d="M109 481v81c0 107 71 165 158 165c32 0 52 -7 56 -10v-84c-5 2 -17 6 -41 6c-33 0 -76 -16 -76 -82v-76h219v81c0 107 71 165 158 165c32 0 52 -7 56 -10v-84c-5 2 -17 6 -41 6c-33 0 -76 -16 -76 -82v-76h225v243h93v-724h-93v396h-225v-396h-97v396h-219v-396h-97v396
h-89v85h89z" />
    <glyph glyph-name="f_i" unicode="fi" horiz-adv-x="604" 
d="M267 727c32 0 52 -7 56 -10v-84c-5 2 -17 6 -41 6c-33 0 -76 -15 -76 -81v-77h318v-481h-93v396h-225v-396h-97v396h-89v85h89v81c0 107 71 165 158 165zM410 665c0 38 30 68 67 68c38 0 68 -30 68 -68c0 -37 -30 -67 -68 -67c-37 0 -67 30 -67 67z" />
    <glyph glyph-name="f_l" unicode="fl" horiz-adv-x="602" 
d="M282 639c-33 0 -76 -16 -76 -82v-76h222v243h94v-724h-94v396h-222v-396h-97v396h-89v85h89v81c0 107 71 165 158 165c32 0 52 -7 56 -10v-84c-5 2 -17 6 -41 6z" />
    <glyph glyph-name=".notdef" horiz-adv-x="562" 
d="M80 0v709h402v-709h-402zM159 79h244v551h-244v-551z" />
    <glyph glyph-name=".null" horiz-adv-x="0" 
 />
    <glyph glyph-name=".null" horiz-adv-x="0" 
 />
    <glyph glyph-name="uni000D" unicode="&#xd;" horiz-adv-x="250" 
 />
    <glyph glyph-name="space" unicode=" " horiz-adv-x="250" 
 />
    <glyph glyph-name="exclam" unicode="!" horiz-adv-x="311" 
d="M214 709l-25 -506h-67l-26 506h118zM90 60c0 36 29 66 65 66s66 -30 66 -66s-30 -65 -66 -65s-65 29 -65 65z" />
    <glyph glyph-name="quotedbl" unicode="&#x22;" horiz-adv-x="374" 
d="M40 599c0 36 25 61 61 61c35 0 60 -25 60 -61c0 -6 -1 -13 -2 -18l-42 -188h-34l-41 187c-1 5 -2 14 -2 19zM213 599c0 36 25 61 61 61c35 0 60 -25 60 -61c0 -6 -1 -13 -2 -18l-42 -188h-34l-41 187c-1 5 -2 14 -2 19z" />
    <glyph glyph-name="numbersign" unicode="#" horiz-adv-x="738" 
d="M99 405v76h144l36 167h84l-36 -167h142l36 167h84l-36 -167h135v-76h-151l-34 -160h136v-76h-153l-36 -169h-84l36 169h-142l-36 -169h-84l36 169h-126v76h143l34 160h-128zM311 405l-34 -160h142l34 160h-142z" />
    <glyph glyph-name="dollar" unicode="$" horiz-adv-x="595" 
d="M346 -117h-78v104c-139 14 -207 110 -218 198l95 30c6 -64 44 -126 123 -140v209l-25 5c-102 21 -166 84 -166 182c0 95 79 176 191 190v105h78v-106c123 -16 171 -98 187 -163l-90 -33c-6 38 -36 90 -97 107v-205l15 -3c111 -22 178 -96 178 -186
c0 -89 -66 -175 -193 -190v-104zM441 172c0 42 -30 81 -95 96v-193c65 12 95 51 95 97zM176 475c0 -42 24 -78 92 -91v190c-58 -11 -92 -50 -92 -99z" />
    <glyph glyph-name="percent" unicode="%" horiz-adv-x="817" 
d="M138 498c0 -46 34 -79 77 -79c44 0 77 33 77 79c0 45 -33 78 -77 78c-43 0 -77 -33 -77 -78zM55 498c0 88 74 157 160 157s161 -69 161 -157c0 -89 -75 -158 -161 -158s-160 69 -160 158zM534 150c0 -46 34 -79 77 -79c44 0 77 33 77 79c0 45 -33 78 -77 78
c-43 0 -77 -33 -77 -78zM451 150c0 88 74 157 160 157s161 -69 161 -157c0 -89 -75 -158 -161 -158s-160 69 -160 158zM227 0h-92l466 648h90z" />
    <glyph glyph-name="ampersand" unicode="&#x26;" horiz-adv-x="697" 
d="M564 0l-90 94c-58 -65 -120 -106 -199 -106c-134 0 -205 90 -205 181c0 92 50 142 125 198l10 8l-13 14c-33 35 -85 89 -85 158c0 115 95 177 183 177c107 0 188 -67 188 -173c0 -70 -50 -120 -100 -157l-36 -27l132 -137l158 176v-129l-96 -111l161 -166h-133zM276 78
c54 0 93 35 132 78l3 4l-144 151l-36 -27c-34 -26 -60 -58 -60 -107c0 -48 40 -99 105 -99zM204 553c0 -40 31 -75 54 -99l22 -24l48 36c42 31 53 58 53 88c0 47 -38 86 -90 86c-41 0 -87 -31 -87 -87z" />
    <glyph glyph-name="quotesingle" unicode="'" horiz-adv-x="201" 
d="M40 599c0 36 25 61 61 61c35 0 60 -25 60 -61c0 -6 -1 -13 -2 -18l-42 -188h-34l-41 187c-1 5 -2 14 -2 19z" />
    <glyph glyph-name="parenleft" unicode="(" horiz-adv-x="302" 
d="M55 317c0 218 83 368 190 477l57 -50c-102 -114 -166 -251 -166 -427s64 -313 166 -427l-57 -50c-107 109 -190 259 -190 477z" />
    <glyph glyph-name="parenright" unicode=")" horiz-adv-x="302" 
d="M247 317c0 -218 -83 -368 -190 -477l-57 50c102 114 166 251 166 427s-64 313 -166 427l57 50c107 -109 190 -259 190 -477z" />
    <glyph glyph-name="asterisk" unicode="*" horiz-adv-x="440" 
d="M259 709v-134l123 42l23 -72l-124 -41l82 -105l-61 -46l-83 109l-78 -108l-61 46l79 104l-124 41l23 72l122 -43v135h79z" />
    <glyph glyph-name="plus" unicode="+" horiz-adv-x="567" 
d="M55 327h187v195h82v-195h188v-79h-188v-197h-82v197h-187v79z" />
    <glyph glyph-name="comma" unicode="," horiz-adv-x="294" 
d="M70 64c0 36 31 67 73 67c43 0 81 -32 81 -95c0 -132 -86 -187 -148 -195v52c49 11 82 60 83 108c-3 -2 -11 -5 -22 -5c-37 0 -67 25 -67 68z" />
    <glyph glyph-name="hyphen" unicode="-" horiz-adv-x="361" 
d="M316 246h-271v82h271v-82z" />
    <glyph glyph-name="period" unicode="." horiz-adv-x="279" 
d="M70 64c0 39 30 70 69 70s70 -31 70 -70s-31 -69 -70 -69s-69 30 -69 69z" />
    <glyph glyph-name="slash" unicode="/" horiz-adv-x="434" 
d="M434 709l-343 -709h-91l343 709h91z" />
    <glyph glyph-name="zero" unicode="0" horiz-adv-x="614" 
d="M147 324c0 -99 18 -169 57 -210c25 -26 57 -42 103 -42s78 16 103 42c39 41 57 111 57 210s-18 169 -57 210c-25 26 -57 42 -103 42s-78 -16 -103 -42c-39 -41 -57 -111 -57 -210zM50 324c0 89 15 171 58 235c42 63 107 104 199 104s157 -41 199 -104
c43 -64 58 -146 58 -235s-15 -171 -58 -235c-42 -63 -107 -104 -199 -104s-157 41 -199 104c-43 64 -58 146 -58 235z" />
    <glyph glyph-name="one" unicode="1" horiz-adv-x="353" 
d="M278 0h-96v457h-157v69c90 2 152 52 167 122h86v-648z" />
    <glyph glyph-name="two" unicode="2" horiz-adv-x="529" 
d="M141 415l-98 12c-1 9 -1 18 -1 26c0 111 82 210 224 210c139 0 219 -91 219 -199c0 -85 -48 -153 -122 -200l-128 -82c-37 -24 -70 -51 -79 -91h333v-91h-454c2 106 44 187 154 258l108 70c61 39 89 85 89 135c0 59 -40 114 -122 114c-85 0 -125 -59 -125 -133
c0 -9 1 -19 2 -29z" />
    <glyph glyph-name="three" unicode="3" horiz-adv-x="553" 
d="M225 301l-48 81l191 176h-310v90h440v-88l-185 -171c95 0 200 -64 200 -197c0 -109 -84 -208 -235 -208c-150 0 -235 98 -241 204l96 22c4 -86 66 -140 144 -140c89 0 137 55 137 120c0 85 -68 121 -132 121c-20 0 -40 -4 -57 -10z" />
    <glyph glyph-name="four" unicode="4" horiz-adv-x="574" 
d="M35 146v113l278 389h135v-411h111v-91h-111v-146h-95v146h-318zM353 237v317l-228 -317h228z" />
    <glyph glyph-name="five" unicode="5" horiz-adv-x="548" 
d="M35 176l94 28c6 -80 65 -134 146 -134c77 0 139 51 139 131c0 89 -65 134 -140 134c-46 0 -90 -18 -118 -47c-34 13 -63 26 -96 38l84 322h342v-90h-277l-48 -186c29 32 81 48 132 48c127 0 220 -81 220 -215c0 -122 -94 -221 -238 -221c-138 0 -231 90 -240 192z" />
    <glyph glyph-name="six" unicode="6" horiz-adv-x="580" 
d="M525 627l-30 -80c-24 14 -67 28 -116 28c-135 0 -220 -99 -228 -232c26 43 85 84 171 84c128 0 222 -80 222 -221c0 -139 -113 -221 -240 -221c-124 0 -253 86 -253 300c0 241 145 378 334 378c59 0 110 -15 140 -36zM165 206c0 -85 69 -136 140 -136
c76 0 140 50 140 136c0 87 -65 137 -140 137s-140 -50 -140 -137z" />
    <glyph glyph-name="seven" unicode="7" horiz-adv-x="483" 
d="M478 648v-94c-60 -48 -243 -211 -274 -554h-101c29 377 267 558 267 558h-365v90h473z" />
    <glyph glyph-name="eight" unicode="8" 
d="M280 372c69 1 120 43 120 106c0 58 -47 104 -120 104s-120 -46 -120 -104c0 -63 51 -105 120 -106zM280 70c87 0 136 48 136 109c0 62 -50 111 -136 111s-136 -49 -136 -111c0 -61 49 -109 136 -109zM280 -15c-149 0 -235 82 -235 186c0 79 54 137 123 160
c-59 22 -106 80 -106 152c0 106 94 180 218 180s218 -74 218 -180c0 -70 -46 -130 -106 -152c69 -22 123 -81 123 -160c0 -104 -86 -186 -235 -186z" />
    <glyph glyph-name="nine" unicode="9" horiz-adv-x="581" 
d="M57 23l32 81c28 -17 76 -31 118 -31c157 0 221 103 225 230c-23 -43 -80 -83 -168 -83c-112 0 -224 76 -224 219c0 134 112 224 239 224s252 -91 252 -298c0 -238 -106 -380 -324 -380c-50 0 -118 16 -150 38zM419 441c0 84 -69 136 -140 136c-72 0 -140 -51 -140 -136
c0 -88 66 -137 140 -137c72 0 140 51 140 137z" />
    <glyph glyph-name="colon" unicode=":" horiz-adv-x="290" 
d="M76 64c0 39 30 70 69 70s70 -31 70 -70s-31 -69 -70 -69s-69 30 -69 69zM75 416c0 39 30 70 69 70s70 -31 70 -70s-31 -69 -70 -69s-69 30 -69 69z" />
    <glyph glyph-name="semicolon" unicode=";" horiz-adv-x="297" 
d="M75 62c0 34 30 63 70 63c41 0 77 -30 77 -90c0 -125 -82 -177 -141 -185v49c47 11 78 57 79 103c-3 -2 -10 -5 -21 -5c-35 0 -64 24 -64 65zM76 416c0 39 30 70 69 70s70 -31 70 -70s-31 -69 -70 -69s-69 30 -69 69z" />
    <glyph glyph-name="less" unicode="&#x3c;" horiz-adv-x="482" 
d="M35 244v85l412 206v-95l-310 -153l310 -153v-95z" />
    <glyph glyph-name="equal" unicode="=" horiz-adv-x="593" 
d="M528 346h-463v77h463v-77zM528 151h-463v79h463v-79z" />
    <glyph glyph-name="greater" unicode="&#x3e;" horiz-adv-x="482" 
d="M447 329v-85l-412 -205v95l312 153l-312 153v95z" />
    <glyph glyph-name="question" unicode="?" horiz-adv-x="510" 
d="M284 203h-88c-1 12 -1 22 -1 35c0 66 24 116 83 156l44 30c34 23 53 59 53 98c0 59 -39 114 -119 114c-87 0 -125 -65 -125 -128c0 -17 3 -38 7 -49l-97 12c-4 14 -6 30 -6 48c0 92 67 205 221 205c140 0 219 -99 219 -201c0 -80 -44 -135 -102 -174l-46 -31
c-31 -21 -44 -57 -44 -96c0 -5 0 -9 1 -19zM174 60c0 36 29 66 65 66s66 -30 66 -66s-30 -65 -66 -65s-65 29 -65 65z" />
    <glyph glyph-name="at" unicode="@" horiz-adv-x="826" 
d="M601 137c-47 0 -88 20 -99 64c-30 -43 -76 -66 -119 -66c-90 0 -153 68 -153 171c0 134 92 233 200 233c42 0 92 -21 107 -66l9 53h79l-54 -251c-2 -10 -3 -19 -3 -28c0 -23 10 -41 38 -41c56 0 108 90 108 190c0 146 -111 255 -280 255c-176 0 -307 -128 -307 -319
c0 -175 118 -306 318 -306c73 0 145 22 205 70l41 -54c-58 -55 -160 -89 -246 -89c-234 0 -400 153 -400 380c0 232 177 391 388 391c203 0 358 -140 358 -327c0 -149 -86 -260 -190 -260zM515 370c0 59 -30 94 -84 94c-72 0 -119 -73 -119 -147c0 -61 20 -109 85 -109
c68 0 115 68 118 162z" />
    <glyph glyph-name="A" unicode="A" horiz-adv-x="697" 
d="M581 0l-77 198h-314l-75 -198h-105l282 709h113l282 -709h-106zM346 607l-121 -318h244z" />
    <glyph glyph-name="B" unicode="B" horiz-adv-x="602" 
d="M90 709h231c135 0 214 -80 214 -192c0 -76 -44 -130 -106 -153c81 -20 128 -92 128 -171c0 -112 -89 -193 -219 -193h-248v709zM188 399h122c79 0 126 47 126 113c0 67 -49 111 -130 111h-118v-224zM188 86h136c79 0 133 44 133 113c0 68 -43 116 -129 116h-140v-229z
" />
    <glyph glyph-name="C" unicode="C" horiz-adv-x="750" 
d="M397 -15c-183 0 -352 133 -352 370s176 369 352 369c162 0 276 -88 312 -225l-91 -32c-27 107 -105 167 -221 167c-129 0 -252 -94 -252 -279s123 -280 252 -280c121 0 197 73 226 170l87 -32c-38 -133 -150 -228 -313 -228z" />
    <glyph glyph-name="D" unicode="D" horiz-adv-x="720" 
d="M188 87h145c131 0 241 88 241 266c0 179 -108 269 -239 269h-147v-535zM336 0h-246v709h248c180 0 337 -123 337 -356c0 -232 -159 -353 -339 -353z" />
    <glyph glyph-name="E" unicode="E" horiz-adv-x="581" 
d="M521 0h-431v709h431v-91h-333v-218h302v-92h-302v-217h333v-91z" />
    <glyph glyph-name="F" unicode="F" horiz-adv-x="551" 
d="M188 0h-98v709h431v-91h-333v-228h302v-92h-302v-298z" />
    <glyph glyph-name="G" unicode="G" horiz-adv-x="765" 
d="M704 0h-79l-9 100c-31 -56 -108 -115 -227 -115c-178 0 -344 130 -344 370s176 369 351 369c154 0 273 -86 314 -214l-89 -38c-32 102 -115 162 -225 162c-127 0 -251 -91 -251 -279s120 -281 247 -281c158 0 215 112 219 185h-246v88h339v-347z" />
    <glyph glyph-name="H" unicode="H" horiz-adv-x="738" 
d="M648 0h-98v315h-362v-315h-98v709h98v-303h362v303h98v-709z" />
    <glyph glyph-name="I" unicode="I" horiz-adv-x="280" 
d="M190 0h-100v709h100v-709z" />
    <glyph glyph-name="J" unicode="J" horiz-adv-x="534" 
d="M20 211v46l98 22v-67c0 -94 51 -136 122 -136c72 0 116 47 116 129v504h98v-497c0 -124 -81 -227 -213 -227c-139 0 -221 90 -221 226z" />
    <glyph glyph-name="K" unicode="K" horiz-adv-x="668" 
d="M529 0l-240 322l-101 -108v-214h-98v709h98v-365l332 365h129l-295 -316l299 -393h-124z" />
    <glyph glyph-name="L" unicode="L" horiz-adv-x="548" 
d="M523 0h-433v709h98v-617h335v-92z" />
    <glyph glyph-name="M" unicode="M" horiz-adv-x="946" 
d="M856 0h-97v552l-242 -552h-90l-240 552v-552h-97v709h133l250 -577l252 577h131v-709z" />
    <glyph glyph-name="N" unicode="N" horiz-adv-x="763" 
d="M673 0h-102l-383 578v-578h-98v709h131l354 -544v544h98v-709z" />
    <glyph glyph-name="O" unicode="O" horiz-adv-x="802" 
d="M145 355c0 -185 124 -280 256 -280s256 95 256 280s-124 279 -256 279s-256 -94 -256 -279zM45 355c0 237 178 369 356 369s356 -132 356 -369s-178 -370 -356 -370s-356 133 -356 370z" />
    <glyph glyph-name="P" unicode="P" horiz-adv-x="597" 
d="M188 378h142c85 0 137 47 137 120c0 75 -52 123 -137 123h-142v-243zM348 290h-160v-290h-98v709h258c131 0 219 -91 219 -210c0 -120 -88 -209 -219 -209z" />
    <glyph glyph-name="Q" unicode="Q" horiz-adv-x="802" 
d="M45 355c0 237 178 369 356 369s356 -132 356 -369c0 -112 -40 -200 -100 -262l83 -93l-67 -59l-86 95c-56 -34 -121 -51 -186 -51c-178 0 -356 133 -356 370zM145 355c0 -185 124 -280 256 -280c44 0 86 10 124 31l-123 138l68 59l124 -140c38 46 63 110 63 192
c0 185 -124 279 -256 279s-256 -94 -256 -279z" />
    <glyph glyph-name="R" unicode="R" horiz-adv-x="619" 
d="M457 0l-162 290h-106v-290h-99v709h267c134 0 217 -94 217 -211c0 -102 -65 -181 -172 -201l169 -297h-114zM189 378h150c80 0 134 47 134 120c0 75 -54 123 -134 123h-150v-243z" />
    <glyph glyph-name="S" unicode="S" horiz-adv-x="593" 
d="M542 548l-88 -31c-8 51 -51 121 -150 121c-80 0 -137 -52 -137 -118c0 -51 31 -90 91 -103l106 -23c118 -26 184 -100 184 -199c0 -110 -94 -210 -245 -210c-171 0 -252 110 -265 211l94 30c7 -79 63 -152 170 -152c98 0 146 51 146 113c0 51 -35 95 -106 110l-101 22
c-101 22 -173 88 -173 194c0 111 103 211 234 211c160 0 224 -99 240 -176z" />
    <glyph glyph-name="T" unicode="T" horiz-adv-x="592" 
d="M582 618h-237v-618h-98v618h-237v91h572v-91z" />
    <glyph glyph-name="U" unicode="U" horiz-adv-x="670" 
d="M335 -15c-144 0 -255 90 -255 257v467h97v-464c0 -108 59 -169 158 -169c100 0 157 61 157 169v464h98v-467c0 -167 -111 -257 -255 -257z" />
    <glyph glyph-name="V" unicode="V" horiz-adv-x="657" 
d="M328 126l216 583h103l-273 -709h-97l-267 709h104z" />
    <glyph glyph-name="W" unicode="W" horiz-adv-x="1004" 
d="M735 148l153 561h101l-202 -709h-101l-185 575l-183 -575h-98l-205 709h101l156 -555l178 555h103z" />
    <glyph glyph-name="X" unicode="X" horiz-adv-x="617" 
d="M607 709l-241 -354l238 -355h-117l-179 277l-183 -277h-115l242 355l-240 354h118l179 -278l182 278h116z" />
    <glyph glyph-name="Y" unicode="Y" horiz-adv-x="618" 
d="M260 303l-250 406h118l184 -316l184 316h112l-250 -406v-303h-98v303z" />
    <glyph glyph-name="Z" unicode="Z" horiz-adv-x="632" 
d="M592 0h-547v98l423 520h-413v91h532v-95l-425 -522h430v-92z" />
    <glyph glyph-name="bracketleft" unicode="[" horiz-adv-x="288" 
d="M283 -148h-193v933h193v-76h-111v-782h111v-75z" />
    <glyph glyph-name="backslash" unicode="\" horiz-adv-x="434" 
d="M341 0l-341 709h93l341 -709h-93z" />
    <glyph glyph-name="bracketright" unicode="]" horiz-adv-x="288" 
d="M198 -148h-193v75h111v782h-111v76h193v-933z" />
    <glyph glyph-name="asciicircum" unicode="^" horiz-adv-x="521" 
d="M496 354h-99l-136 258l-137 -258h-99l194 356h83z" />
    <glyph glyph-name="underscore" unicode="_" horiz-adv-x="542" 
d="M527 -79h-512v79h512v-79z" />
    <glyph glyph-name="grave" unicode="`" horiz-adv-x="272" 
d="M160 543l-126 146h118l86 -146h-78z" />
    <glyph glyph-name="a" unicode="a" horiz-adv-x="523" 
d="M50 129c0 86 63 134 146 146l130 19c29 4 37 19 37 36c0 47 -31 86 -104 86c-66 0 -103 -41 -109 -97l-90 21c10 92 93 156 197 156c144 0 200 -82 200 -176v-241c0 -42 4 -67 6 -79h-92c-2 12 -5 30 -5 65c-21 -34 -69 -80 -155 -80c-98 0 -161 68 -161 144zM224 64
c77 0 139 37 139 142v22l-147 -22c-40 -6 -70 -29 -70 -72c0 -36 30 -70 78 -70z" />
    <glyph glyph-name="b" unicode="b" horiz-adv-x="593" 
d="M173 0h-93v724h93v-311c23 43 79 82 159 82c146 0 221 -112 221 -252c0 -143 -81 -256 -224 -256c-71 0 -126 31 -156 83v-70zM457 243c0 104 -55 169 -142 169c-83 0 -143 -65 -143 -169s60 -172 143 -172c86 0 142 68 142 172z" />
    <glyph glyph-name="c" unicode="c" horiz-adv-x="530" 
d="M282 409c-76 0 -146 -56 -146 -168c0 -110 69 -169 147 -169c90 0 123 61 134 99l83 -36c-23 -69 -92 -150 -217 -150c-140 0 -243 110 -243 256c0 150 105 255 242 255c128 0 194 -80 214 -153l-85 -36c-12 47 -47 102 -129 102z" />
    <glyph glyph-name="d" unicode="d" horiz-adv-x="588" 
d="M136 242c0 -99 51 -172 141 -172c86 0 139 75 139 174s-52 167 -138 167s-142 -70 -142 -169zM417 65v8c-23 -46 -74 -86 -149 -86c-141 0 -228 112 -228 255c0 136 92 252 228 252c85 0 131 -42 147 -81v311h93v-635c0 -46 4 -81 5 -89h-91c-2 11 -5 36 -5 65z" />
    <glyph glyph-name="e" unicode="e" horiz-adv-x="542" 
d="M141 290h263c-2 69 -47 123 -132 123c-79 0 -127 -61 -131 -123zM418 165l81 -28c-27 -85 -104 -152 -216 -152c-129 0 -242 94 -242 257c0 151 109 254 230 254c148 0 231 -102 231 -252c0 -12 -1 -24 -2 -30h-362c2 -86 64 -146 145 -146c78 0 117 43 135 97z" />
    <glyph glyph-name="f" unicode="f" horiz-adv-x="343" 
d="M322 396h-116v-396h-97v396h-89v85h89v81c0 107 71 165 158 165c32 0 52 -7 56 -10v-84c-5 2 -17 6 -41 6c-33 0 -76 -16 -76 -82v-76h116v-85z" />
    <glyph glyph-name="g" unicode="g" horiz-adv-x="578" 
d="M45 -26l91 21c7 -67 58 -118 131 -118c101 0 147 52 147 156v69c-23 -44 -75 -79 -147 -79c-128 0 -221 97 -221 233c0 130 89 234 221 234c74 0 124 -28 148 -76v67h93v-445c0 -122 -60 -241 -241 -241c-120 0 -210 76 -222 179zM281 102c81 0 137 61 137 154
s-56 154 -137 154c-83 0 -139 -61 -139 -154c0 -94 54 -154 139 -154z" />
    <glyph glyph-name="h" unicode="h" horiz-adv-x="562" 
d="M174 283v-283h-94v724h94v-299c35 51 91 70 146 70c115 0 172 -83 172 -190v-305h-94v289c0 67 -28 121 -112 121c-72 0 -110 -56 -112 -127z" />
    <glyph glyph-name="i" unicode="i" horiz-adv-x="253" 
d="M173 0h-93v481h93v-481zM59 663c0 38 30 68 67 68c38 0 68 -30 68 -68c0 -37 -30 -67 -68 -67c-37 0 -67 30 -67 67z" />
    <glyph glyph-name="j" unicode="j" horiz-adv-x="254" 
d="M80 -52v533h94v-537c0 -87 -50 -149 -133 -149c-36 0 -50 5 -56 7v79c5 -1 16 -3 30 -3c49 0 65 26 65 70zM59 665c0 38 30 68 67 68c38 0 68 -30 68 -68c0 -37 -30 -67 -68 -67c-37 0 -67 30 -67 67z" />
    <glyph glyph-name="k" unicode="k" horiz-adv-x="525" 
d="M511 481l-205 -203l209 -278h-118l-157 212l-67 -67v-145h-93v724h93v-456l208 213h130z" />
    <glyph glyph-name="l" unicode="l" horiz-adv-x="254" 
d="M174 0h-94v724h94v-724z" />
    <glyph glyph-name="m" unicode="m" horiz-adv-x="857" 
d="M173 0h-93v481h90v-64c30 53 90 78 146 78c60 0 118 -29 144 -91c38 69 100 91 161 91c84 0 166 -57 166 -183v-312h-93v302c0 63 -31 110 -102 110c-66 0 -111 -52 -111 -121v-291h-94v302c0 62 -30 110 -102 110c-67 0 -112 -50 -112 -122v-290z" />
    <glyph glyph-name="n" unicode="n" horiz-adv-x="562" 
d="M174 278v-278h-94v481h92v-69c35 60 92 83 148 83c115 0 172 -83 172 -190v-305h-94v289c0 67 -28 121 -112 121c-74 0 -112 -59 -112 -132z" />
    <glyph glyph-name="o" unicode="o" horiz-adv-x="572" 
d="M286 69c80 0 150 60 150 172c0 111 -70 171 -150 171s-150 -60 -150 -171c0 -112 70 -172 150 -172zM286 496c144 0 246 -109 246 -255c0 -147 -102 -256 -246 -256s-246 109 -246 256c0 146 102 255 246 255z" />
    <glyph glyph-name="p" unicode="p" horiz-adv-x="593" 
d="M173 -190h-93v671h91v-75c26 48 83 86 161 86c144 0 221 -111 221 -251c0 -143 -83 -254 -224 -254c-74 0 -130 35 -156 78v-255zM457 241c0 96 -54 168 -142 168c-86 0 -143 -72 -143 -168c0 -99 57 -170 143 -170c87 0 142 71 142 170z" />
    <glyph glyph-name="q" unicode="q" horiz-adv-x="581" 
d="M511 -190h-93v258c-25 -49 -79 -81 -150 -81c-138 0 -228 115 -228 255c0 136 85 251 226 251c83 0 134 -43 154 -86v74h91v-671zM136 242c0 -99 55 -172 141 -172c85 0 142 73 142 172s-57 168 -142 168c-87 0 -141 -69 -141 -168z" />
    <glyph glyph-name="r" unicode="r" horiz-adv-x="367" 
d="M347 486v-100c-14 2 -28 3 -41 3c-79 0 -132 -42 -132 -148v-241h-94v481h92v-84c35 74 95 92 144 92c13 0 26 -2 31 -3z" />
    <glyph glyph-name="s" unicode="s" horiz-adv-x="452" 
d="M35 125l85 30c6 -50 44 -90 112 -90c53 0 82 30 82 64c0 30 -22 53 -62 62l-82 18c-75 16 -120 67 -120 135c0 82 77 152 171 152c132 0 173 -86 183 -129l-83 -31c-4 25 -24 80 -100 80c-48 0 -80 -31 -80 -64c0 -29 18 -50 55 -58l78 -17c87 -19 133 -72 133 -143
c0 -68 -57 -149 -176 -149c-132 0 -188 85 -196 140z" />
    <glyph glyph-name="t" unicode="t" horiz-adv-x="355" 
d="M206 633v-152h104v-85h-104v-250c0 -44 18 -66 67 -66c12 0 29 2 37 4v-80c-8 -3 -32 -9 -64 -9c-82 0 -134 50 -134 137v264h-92v85h26c52 0 74 32 74 74v78h86z" />
    <glyph glyph-name="u" unicode="u" horiz-adv-x="566" 
d="M397 58c-26 -50 -86 -73 -142 -73c-112 0 -180 84 -180 193v303h94v-289c0 -66 30 -124 109 -124c76 0 114 50 114 123v290h94v-392c0 -38 3 -72 5 -89h-90c-2 11 -4 38 -4 58z" />
    <glyph glyph-name="v" unicode="v" horiz-adv-x="502" 
d="M492 481l-192 -481h-95l-195 481h106l137 -371l138 371h101z" />
    <glyph glyph-name="w" unicode="w" horiz-adv-x="793" 
d="M351 481h97l125 -362l106 362h99l-156 -481h-97l-128 366l-125 -366h-99l-158 481h103l108 -362z" />
    <glyph glyph-name="x" unicode="x" horiz-adv-x="491" 
d="M10 0l179 245l-173 236h114l118 -169l116 169h111l-171 -236c29 -39 148 -206 177 -245h-113l-124 177l-122 -177h-112z" />
    <glyph glyph-name="y" unicode="y" horiz-adv-x="523" 
d="M200 -201h-103l120 254l-207 428h108l150 -332l144 332h101z" />
    <glyph glyph-name="z" unicode="z" horiz-adv-x="466" 
d="M426 0h-386v82l264 314h-260v85h377v-82l-264 -314h269v-85z" />
    <glyph glyph-name="braceleft" unicode="{" horiz-adv-x="353" 
d="M45 275v86c58 0 110 27 110 101v137c0 124 63 186 180 186h13v-75h-13c-74 0 -98 -32 -98 -105v-164c0 -67 -40 -111 -104 -123c64 -12 104 -56 104 -123v-163c0 -73 24 -105 98 -105h13v-75h-13c-117 0 -180 62 -180 186v136c0 74 -52 101 -110 101z" />
    <glyph glyph-name="bar" unicode="|" horiz-adv-x="262" 
d="M172 -148h-82v933h82v-933z" />
    <glyph glyph-name="braceright" unicode="}" horiz-adv-x="353" 
d="M308 361v-86c-58 0 -110 -27 -110 -101v-136c0 -124 -63 -186 -180 -186h-13v75h13c74 0 98 32 98 105v163c0 67 40 111 104 123c-64 12 -104 56 -104 123v164c0 73 -24 105 -98 105h-13v75h13c117 0 180 -62 180 -186v-137c0 -74 52 -101 110 -101z" />
    <glyph glyph-name="asciitilde" unicode="~" horiz-adv-x="570" 
d="M288 239l-46 25c-19 10 -37 15 -54 15c-37 0 -70 -22 -96 -57l-57 46c37 61 91 95 152 95c30 0 63 -8 95 -26l46 -25c19 -11 39 -16 57 -16c37 0 71 20 93 55l57 -46c-37 -61 -90 -93 -150 -93c-31 0 -64 9 -97 27z" />
    <glyph glyph-name="uni00A0" unicode="&#xa0;" horiz-adv-x="250" 
 />
    <glyph glyph-name="exclamdown" unicode="&#xa1;" horiz-adv-x="277" 
d="M172 288l25 -505h-118l26 505h67zM73 430c0 36 29 66 65 66s66 -30 66 -66s-30 -65 -66 -65s-65 29 -65 65z" />
    <glyph glyph-name="cent" unicode="&#xa2;" horiz-adv-x="542" 
d="M315 0h-76v94c-112 20 -189 115 -189 234c0 122 78 213 189 233v88h76v-86c102 -11 155 -78 173 -140l-81 -33c-10 36 -37 79 -92 91v-307c61 12 88 58 97 89l80 -33c-20 -59 -77 -127 -177 -138v-92zM143 328c0 -80 41 -132 96 -150v299c-54 -18 -96 -68 -96 -149z" />
    <glyph glyph-name="sterling" unicode="&#xa3;" horiz-adv-x="593" 
d="M71 359h70c-15 34 -30 71 -30 118c0 107 87 186 198 186c154 0 202 -98 206 -178l-98 -17c-1 74 -45 109 -106 109c-53 0 -102 -35 -102 -100c0 -42 16 -79 33 -118h194v-86h-168c1 -9 2 -18 2 -27c0 -70 -35 -128 -95 -159h203c68 0 96 51 96 106l94 -14
c0 -104 -62 -179 -166 -179h-337v95c68 28 110 84 110 140c0 13 -1 26 -4 38h-100v86z" />
    <glyph glyph-name="currency" unicode="&#xa4;" horiz-adv-x="582" 
d="M82 239c0 45 14 87 37 121l-75 77l60 59l75 -78c34 22 74 35 116 35c40 0 78 -11 111 -31l72 74l60 -59l-70 -73c25 -35 41 -78 41 -125c0 -46 -15 -90 -40 -123l69 -71l-59 -59l-70 72c-33 -21 -73 -33 -114 -33c-44 0 -85 14 -119 37l-73 -76l-59 59l73 76
c-22 34 -35 74 -35 118zM165 239c0 -78 58 -132 130 -132s128 54 128 132c0 77 -56 131 -128 131s-130 -54 -130 -131z" />
    <glyph glyph-name="yen" unicode="&#xa5;" horiz-adv-x="582" 
d="M513 155h-168v-155h-97v155h-169v72h169v80h-169v71h117l-171 270h114l157 -261l149 261h112l-163 -270h119v-71h-168v-80h168v-72z" />
    <glyph glyph-name="brokenbar" unicode="&#xa6;" horiz-adv-x="262" 
d="M90 785h82v-399h-82v399zM90 251h82v-399h-82v399z" />
    <glyph glyph-name="section" unicode="&#xa7;" horiz-adv-x="573" 
d="M484 239c0 -61 -47 -109 -84 -125c55 -35 88 -90 88 -145c0 -112 -96 -184 -205 -184c-128 0 -195 76 -197 186l89 18c0 -73 36 -125 110 -125c62 0 106 34 106 95c0 37 -23 68 -59 87l-104 54c-74 38 -139 81 -139 171c0 62 48 110 85 124c-57 35 -89 90 -89 146
c0 112 96 183 205 183c128 0 197 -82 197 -185l-90 -18c0 74 -36 124 -109 124c-63 0 -107 -38 -107 -95c0 -36 21 -66 60 -86l103 -54c74 -39 140 -82 140 -171zM328 312l-100 54c-23 -10 -48 -43 -48 -80s18 -64 64 -88l100 -54c22 10 48 42 48 80c0 37 -18 64 -64 88z
" />
    <glyph glyph-name="dieresis" unicode="&#xa8;" horiz-adv-x="379" 
d="M38 621c0 32 25 58 57 58c33 0 59 -26 59 -58c0 -33 -26 -58 -59 -58c-32 0 -57 25 -57 58zM225 621c0 32 25 58 58 58c32 0 58 -26 58 -58c0 -33 -26 -58 -58 -58c-33 0 -58 25 -58 58z" />
    <glyph glyph-name="copyright" unicode="&#xa9;" horiz-adv-x="821" 
d="M123 355c0 -168 126 -297 286 -297s286 129 286 297s-126 296 -286 296s-286 -128 -286 -296zM45 355c0 203 162 369 364 369c203 0 367 -166 367 -369s-164 -370 -367 -370c-202 0 -364 167 -364 370zM411 494c-62 0 -119 -46 -119 -137c0 -90 56 -138 120 -138
c73 0 100 50 109 81l68 -30c-19 -56 -75 -122 -177 -122c-114 0 -198 90 -198 209c0 122 85 208 197 208c105 0 159 -66 175 -125l-70 -29c-9 38 -38 83 -105 83z" />
    <glyph glyph-name="ordfeminine" unicode="&#xaa;" horiz-adv-x="428" 
d="M66 401c0 60 46 95 103 103l88 12c20 3 26 13 26 25c0 30 -20 56 -68 56c-44 0 -69 -28 -73 -65l-69 16c6 61 61 111 141 111c104 0 143 -59 143 -126v-169c0 -22 3 -51 4 -55h-71c-2 8 -4 23 -4 44c-15 -25 -49 -54 -105 -54c-71 0 -115 48 -115 102zM193 359
c49 0 90 23 90 93v15l-95 -15c-26 -4 -47 -18 -47 -47c0 -24 19 -46 52 -46z" />
    <glyph glyph-name="guillemotleft" unicode="&#xab;" horiz-adv-x="471" 
d="M256 99h-93l-133 191l133 191h93l-131 -191zM451 99h-93l-133 191l133 191h93l-131 -191z" />
    <glyph glyph-name="logicalnot" unicode="&#xac;" horiz-adv-x="573" 
d="M508 149h-84v195h-379v82h463v-277z" />
    <glyph glyph-name="uni00AD" unicode="&#xad;" horiz-adv-x="361" 
d="M316 246h-271v82h271v-82z" />
    <glyph glyph-name="registered" unicode="&#xae;" horiz-adv-x="821" 
d="M45 355c0 203 162 369 364 369c203 0 367 -166 367 -369s-164 -370 -367 -370c-202 0 -364 167 -364 370zM123 355c0 -168 126 -297 286 -297s286 129 286 297s-126 296 -286 296s-286 -128 -286 -296zM363 373h52c45 0 70 22 70 59c0 39 -25 61 -70 61h-52v-120z
M363 307v-150h-76v402h139c78 0 136 -55 136 -126c0 -56 -36 -102 -88 -119l90 -157h-87l-84 150h-30z" />
    <glyph glyph-name="macron" unicode="&#xaf;" horiz-adv-x="343" 
d="M308 577h-273v81h273v-81z" />
    <glyph glyph-name="degree" unicode="&#xb0;" horiz-adv-x="371" 
d="M108 502c0 -46 34 -79 77 -79c44 0 77 33 77 79c0 45 -33 78 -77 78c-43 0 -77 -33 -77 -78zM25 502c0 88 74 157 160 157s161 -69 161 -157c0 -89 -75 -158 -161 -158s-160 69 -160 158z" />
    <glyph glyph-name="plusminus" unicode="&#xb1;" horiz-adv-x="567" 
d="M65 386h177v136h82v-136h178v-77h-178v-134h-82v134h-177v77zM65 130h437v-79h-437v79z" />
    <glyph glyph-name="twosuperior" unicode="&#xb2;" horiz-adv-x="389" 
d="M141 568h-74c-2 10 -3 23 -3 31c0 63 50 117 132 117s131 -54 131 -115c0 -47 -27 -83 -70 -110l-72 -45c-15 -10 -28 -23 -31 -37h175v-65h-268v13c0 59 26 109 85 145l60 37c28 17 43 39 43 63c0 26 -19 50 -54 50c-34 0 -57 -23 -57 -58c0 -4 1 -17 3 -26z" />
    <glyph glyph-name="threesuperior" unicode="&#xb3;" horiz-adv-x="412" 
d="M178 509l-29 56l95 79h-171v65h271v-63l-100 -80c57 -5 108 -41 108 -109c0 -66 -58 -121 -145 -121s-135 51 -147 103l67 27c6 -38 38 -64 79 -64s68 24 68 55c0 42 -35 56 -68 56c-10 0 -21 -2 -28 -4z" />
    <glyph glyph-name="acute" unicode="&#xb4;" horiz-adv-x="274" 
d="M240 689l-126 -146h-79l87 146h118z" />
    <glyph glyph-name="mu" unicode="&#xb5;" horiz-adv-x="571" 
d="M402 58c-26 -50 -86 -73 -142 -73c-36 0 -62 8 -86 20v-195h-94v671h94v-289c0 -66 30 -124 109 -124c76 0 114 50 114 123v290h94v-392c0 -38 3 -76 5 -89h-90c-2 11 -4 38 -4 58z" />
    <glyph glyph-name="paragraph" unicode="&#xb6;" horiz-adv-x="626" 
d="M328 628v-829h-83v522h-16c-105 0 -194 83 -194 190c0 128 103 198 226 198h340v-81h-97v-829h-83v829h-93z" />
    <glyph glyph-name="periodcentered" unicode="&#xb7;" horiz-adv-x="279" 
d="M70 284c0 39 30 70 69 70s70 -31 70 -70s-31 -69 -70 -69s-69 30 -69 69z" />
    <glyph glyph-name="cedilla" unicode="&#xb8;" horiz-adv-x="294" 
d="M115 -101l-33 39l48 76h71l-39 -60c56 0 97 -32 97 -82c0 -47 -36 -90 -117 -90c-50 0 -90 22 -110 46l37 45c12 -13 38 -34 72 -34c24 0 47 10 47 33c0 18 -16 32 -44 32c-10 0 -21 -2 -29 -5z" />
    <glyph glyph-name="onesuperior" unicode="&#xb9;" horiz-adv-x="293" 
d="M213 344h-77v245h-86v52c49 1 85 31 92 68h71v-365z" />
    <glyph glyph-name="ordmasculine" unicode="&#xba;" horiz-adv-x="484" 
d="M242 366c52 0 99 39 99 113s-47 112 -99 112c-53 0 -100 -38 -100 -112s47 -113 100 -113zM242 659c101 0 175 -76 175 -180s-74 -180 -175 -180c-102 0 -175 76 -175 180s73 180 175 180z" />
    <glyph glyph-name="guillemotright" unicode="&#xbb;" horiz-adv-x="471" 
d="M308 99h-93l131 191l-131 191h93l133 -191zM113 99h-93l131 191l-131 191h93l133 -191z" />
    <glyph glyph-name="onequarter" unicode="&#xbc;" horiz-adv-x="780" 
d="M218 283h-77v245h-86v52c49 1 85 31 92 68h71v-365zM173 0h-92l466 648h90zM404 72v73l177 220h85v-228h64v-65h-64v-72h-77v72h-185zM589 137v139l-111 -139h111z" />
    <glyph glyph-name="onehalf" unicode="&#xbd;" horiz-adv-x="779" 
d="M172 0h-92l466 648h90zM218 283h-77v245h-86v52c49 1 85 31 92 68h71v-365zM543 224h-74c-2 10 -3 23 -3 31c0 63 50 117 132 117s131 -54 131 -115c0 -47 -27 -83 -70 -110l-72 -45c-15 -10 -28 -23 -31 -37h175v-65h-268v13c0 59 26 109 85 145l60 37
c28 17 43 39 43 63c0 26 -19 50 -54 50c-34 0 -57 -23 -57 -58c0 -4 1 -17 3 -26z" />
    <glyph glyph-name="threequarters" unicode="&#xbe;" horiz-adv-x="850" 
d="M261 0h-92l466 648h90zM173 448l-29 56l95 79h-171v65h271v-63l-100 -80c57 -5 108 -41 108 -109c0 -66 -58 -121 -145 -121s-135 51 -147 103l67 27c6 -38 38 -64 79 -64s68 24 68 55c0 42 -35 56 -68 56c-10 0 -21 -2 -28 -4zM474 72v73l177 220h85v-228h64v-65h-64
v-72h-77v72h-185zM659 137v139l-111 -139h111z" />
    <glyph glyph-name="questiondown" unicode="&#xbf;" horiz-adv-x="510" 
d="M211 289h88c1 -12 1 -22 1 -35c0 -66 -24 -116 -83 -156l-44 -30c-34 -23 -53 -59 -53 -98c0 -59 39 -114 119 -114c87 0 125 65 125 128c0 17 -3 38 -7 49l97 -12c4 -14 6 -30 6 -48c0 -92 -67 -205 -221 -205c-140 0 -219 99 -219 201c0 80 44 135 102 174l46 31
c31 21 44 57 44 96c0 6 0 12 -1 19zM320 431c0 -36 -29 -66 -65 -66s-66 30 -66 66s30 65 66 65s65 -29 65 -65z" />
    <glyph glyph-name="Agrave" unicode="&#xc0;" horiz-adv-x="697" 
d="M581 0l-77 198h-314l-75 -198h-105l282 709h113l282 -709h-106zM346 607l-121 -318h244zM301 759l-138 119h129l102 -119h-93z" />
    <glyph glyph-name="Aacute" unicode="&#xc1;" horiz-adv-x="697" 
d="M581 0l-77 198h-314l-75 -198h-105l282 709h113l282 -709h-106zM346 607l-121 -318h244zM531 878l-137 -119h-94l101 119h130z" />
    <glyph glyph-name="Acircumflex" unicode="&#xc2;" horiz-adv-x="697" 
d="M581 0l-77 198h-314l-75 -198h-105l282 709h113l282 -709h-106zM346 607l-121 -318h244zM263 759h-91l112 119h120l117 -119h-92l-85 64z" />
    <glyph glyph-name="Atilde" unicode="&#xc3;" horiz-adv-x="697" 
d="M581 0l-77 198h-314l-75 -198h-105l282 709h113l282 -709h-106zM346 607l-121 -318h244zM506 881v-16c0 -74 -41 -111 -96 -111c-29 0 -51 9 -71 23l-15 10c-13 8 -24 14 -37 14c-21 0 -35 -13 -35 -44h-68v16c0 74 42 111 97 111c28 0 53 -11 73 -23l15 -9
c14 -8 25 -14 38 -14c17 0 32 9 32 35v8h67z" />
    <glyph glyph-name="Adieresis" unicode="&#xc4;" horiz-adv-x="697" 
d="M142 819c0 33 26 59 59 59s59 -26 59 -59s-26 -59 -59 -59s-59 26 -59 59zM433 819c0 33 26 59 59 59s59 -26 59 -59s-26 -59 -59 -59s-59 26 -59 59zM581 0l-77 198h-314l-75 -198h-105l282 709h113l282 -709h-106zM346 607l-121 -318h244z" />
    <glyph glyph-name="Aring" unicode="&#xc5;" horiz-adv-x="697" 
d="M346 607l-121 -318h244zM397 760c0 28 -23 52 -53 52c-28 0 -50 -24 -50 -52c0 -29 22 -51 50 -51c30 0 53 22 53 51zM469 760c0 -39 -19 -72 -47 -94l265 -666h-106l-77 198h-314l-75 -198h-105l264 664c-30 22 -50 56 -50 96c0 68 57 121 122 121
c67 0 123 -53 123 -121z" />
    <glyph glyph-name="AE" unicode="&#xc6;" horiz-adv-x="1026" 
d="M966 0h-431v196h-278l-126 -196h-126l472 709h489v-91h-333v-218h302v-92h-302v-217h333v-91zM313 284h222v344z" />
    <glyph glyph-name="Ccedilla" unicode="&#xc7;" horiz-adv-x="750" 
d="M371 -101l-33 39l30 48c-171 13 -323 144 -323 369c0 237 176 369 352 369c162 0 276 -88 312 -225l-91 -32c-27 107 -105 167 -221 167c-129 0 -252 -94 -252 -279s123 -280 252 -280c118 0 197 73 226 170l87 -32c-35 -121 -134 -211 -271 -226l-21 -33
c56 0 97 -32 97 -82c0 -47 -36 -90 -117 -90c-50 0 -90 22 -110 46l37 45c12 -13 38 -34 72 -34c24 0 47 10 47 33c0 18 -16 32 -44 32c-10 0 -21 -2 -29 -5z" />
    <glyph glyph-name="Egrave" unicode="&#xc8;" horiz-adv-x="581" 
d="M521 0h-431v709h431v-91h-333v-218h302v-92h-302v-217h333v-91zM287 759l-138 119h129l102 -119h-93z" />
    <glyph glyph-name="Eacute" unicode="&#xc9;" horiz-adv-x="581" 
d="M521 0h-431v709h431v-91h-333v-218h302v-92h-302v-217h333v-91zM465 878l-137 -119h-94l101 119h130z" />
    <glyph glyph-name="Ecircumflex" unicode="&#xca;" horiz-adv-x="581" 
d="M521 0h-431v709h431v-91h-333v-218h302v-92h-302v-217h333v-91zM222 759h-91l112 119h120l117 -119h-92l-85 64z" />
    <glyph glyph-name="Edieresis" unicode="&#xcb;" horiz-adv-x="581" 
d="M133 819c0 33 26 59 59 59s59 -26 59 -59s-26 -59 -59 -59s-59 26 -59 59zM364 819c0 33 26 59 59 59s59 -26 59 -59s-26 -59 -59 -59s-59 26 -59 59zM521 0h-431v709h431v-91h-333v-218h302v-92h-302v-217h333v-91z" />
    <glyph glyph-name="Igrave" unicode="&#xcc;" horiz-adv-x="280" 
d="M190 0h-100v709h100v-709zM93 759l-138 119h129l102 -119h-93z" />
    <glyph glyph-name="Iacute" unicode="&#xcd;" horiz-adv-x="280" 
d="M190 0h-100v709h100v-709zM325 878l-137 -119h-94l101 119h130z" />
    <glyph glyph-name="Icircumflex" unicode="&#xce;" horiz-adv-x="280" 
d="M190 0h-100v709h100v-709zM63 759h-91l112 119h120l117 -119h-92l-85 64z" />
    <glyph glyph-name="Idieresis" unicode="&#xcf;" horiz-adv-x="280" 
d="M11 819c0 30 23 53 53 53s54 -23 54 -53s-24 -54 -54 -54s-53 24 -53 54zM164 819c0 30 24 53 54 53s53 -23 53 -53s-23 -54 -53 -54s-54 24 -54 54zM190 0h-100v709h100v-709z" />
    <glyph glyph-name="Eth" unicode="&#xd0;" horiz-adv-x="724" 
d="M340 0h-246v325h-76v82h76v302h248c180 0 337 -123 337 -356c0 -232 -159 -353 -339 -353zM192 87h145c131 0 241 88 241 266c0 179 -108 269 -239 269h-147v-215h122v-82h-122v-238z" />
    <glyph glyph-name="Ntilde" unicode="&#xd1;" horiz-adv-x="763" 
d="M673 0h-102l-383 578v-578h-98v709h131l354 -544v544h98v-709zM543 881v-16c0 -74 -41 -111 -96 -111c-29 0 -51 9 -71 23l-15 10c-13 8 -24 14 -37 14c-21 0 -35 -13 -35 -44h-68v16c0 74 42 111 97 111c28 0 53 -11 73 -23l15 -9c14 -8 25 -14 38 -14c17 0 32 9 32 35
v8h67z" />
    <glyph glyph-name="Ograve" unicode="&#xd2;" horiz-adv-x="802" 
d="M145 355c0 -185 124 -280 256 -280s256 95 256 280s-124 279 -256 279s-256 -94 -256 -279zM45 355c0 237 178 369 356 369s356 -132 356 -369s-178 -370 -356 -370s-356 133 -356 370zM361 759l-138 119h129l102 -119h-93z" />
    <glyph glyph-name="Oacute" unicode="&#xd3;" horiz-adv-x="802" 
d="M145 355c0 -185 124 -280 256 -280s256 95 256 280s-124 279 -256 279s-256 -94 -256 -279zM45 355c0 237 178 369 356 369s356 -132 356 -369s-178 -370 -356 -370s-356 133 -356 370zM577 878l-137 -119h-94l101 119h130z" />
    <glyph glyph-name="Ocircumflex" unicode="&#xd4;" horiz-adv-x="802" 
d="M145 355c0 -185 124 -280 256 -280s256 95 256 280s-124 279 -256 279s-256 -94 -256 -279zM45 355c0 237 178 369 356 369s356 -132 356 -369s-178 -370 -356 -370s-356 133 -356 370zM318 759h-91l112 119h120l117 -119h-92l-85 64z" />
    <glyph glyph-name="Otilde" unicode="&#xd5;" horiz-adv-x="802" 
d="M145 355c0 -185 124 -280 256 -280s256 95 256 280s-124 279 -256 279s-256 -94 -256 -279zM45 355c0 237 178 369 356 369s356 -132 356 -369s-178 -370 -356 -370s-356 133 -356 370zM566 882v-16c0 -74 -41 -111 -96 -111c-29 0 -51 9 -71 23l-15 10
c-13 8 -24 14 -37 14c-21 0 -35 -13 -35 -44h-68v16c0 74 42 111 97 111c28 0 53 -11 73 -23l15 -9c14 -8 25 -14 38 -14c17 0 32 9 32 35v8h67z" />
    <glyph glyph-name="Odieresis" unicode="&#xd6;" horiz-adv-x="802" 
d="M187 819c0 33 26 59 59 59s59 -26 59 -59s-26 -59 -59 -59s-59 26 -59 59zM498 819c0 33 26 59 59 59s59 -26 59 -59s-26 -59 -59 -59s-59 26 -59 59zM145 355c0 -185 124 -280 256 -280s256 95 256 280s-124 279 -256 279s-256 -94 -256 -279zM45 355
c0 237 178 369 356 369s356 -132 356 -369s-178 -370 -356 -370s-356 133 -356 370z" />
    <glyph glyph-name="multiply" unicode="&#xd7;" horiz-adv-x="530" 
d="M434 55l-170 175l-168 -174l-56 56l169 176l-168 174l57 57l167 -174l167 174l57 -56l-169 -175l170 -176z" />
    <glyph glyph-name="Oslash" unicode="&#xd8;" horiz-adv-x="802" 
d="M45 355c0 237 178 369 356 369c67 0 134 -19 191 -55l72 92l68 -52l-73 -94c59 -62 98 -150 98 -260c0 -237 -178 -370 -356 -370c-66 0 -132 18 -189 53l-68 -89l-70 51l71 92c-60 62 -100 151 -100 263zM145 355c0 -79 22 -142 59 -188l332 429c-40 25 -87 38 -135 38
c-132 0 -256 -94 -256 -279zM657 355c0 77 -22 138 -57 184l-332 -429c40 -24 86 -35 133 -35c132 0 256 95 256 280z" />
    <glyph glyph-name="Ugrave" unicode="&#xd9;" horiz-adv-x="670" 
d="M335 -15c-144 0 -255 90 -255 257v467h97v-464c0 -108 59 -169 158 -169c100 0 157 61 157 169v464h98v-467c0 -167 -111 -257 -255 -257zM311 759l-138 119h129l102 -119h-93z" />
    <glyph glyph-name="Uacute" unicode="&#xda;" horiz-adv-x="670" 
d="M335 -15c-144 0 -255 90 -255 257v467h97v-464c0 -108 59 -169 158 -169c100 0 157 61 157 169v464h98v-467c0 -167 -111 -257 -255 -257zM494 878l-137 -119h-94l101 119h130z" />
    <glyph glyph-name="Ucircumflex" unicode="&#xdb;" horiz-adv-x="670" 
d="M335 -15c-144 0 -255 90 -255 257v467h97v-464c0 -108 59 -169 158 -169c100 0 157 61 157 169v464h98v-467c0 -167 -111 -257 -255 -257zM252 759h-91l112 119h120l117 -119h-92l-85 64z" />
    <glyph glyph-name="Udieresis" unicode="&#xdc;" horiz-adv-x="670" 
d="M166 819c0 33 26 59 59 59s59 -26 59 -59s-26 -59 -59 -59s-59 26 -59 59zM387 819c0 33 26 59 59 59s59 -26 59 -59s-26 -59 -59 -59s-59 26 -59 59zM335 -15c-144 0 -255 90 -255 257v467h97v-464c0 -108 59 -169 158 -169c100 0 157 61 157 169v464h98v-467
c0 -167 -111 -257 -255 -257z" />
    <glyph glyph-name="Yacute" unicode="&#xdd;" horiz-adv-x="618" 
d="M260 303l-250 406h118l184 -316l184 316h112l-250 -406v-303h-98v303zM467 878l-137 -119h-94l101 119h130z" />
    <glyph glyph-name="Thorn" unicode="&#xde;" horiz-adv-x="592" 
d="M188 244h144c85 0 135 46 135 119c0 75 -50 122 -135 122h-144v-241zM344 157h-156v-157h-98v709h98v-137h155c131 0 224 -89 224 -208c0 -120 -92 -207 -223 -207z" />
    <glyph glyph-name="germandbls" unicode="&#xdf;" horiz-adv-x="567" 
d="M357 343c0 -26 18 -35 46 -48l35 -17c56 -27 104 -78 104 -148c0 -67 -51 -145 -163 -145c-120 0 -164 83 -164 141l83 22c0 -33 19 -85 81 -85c48 0 70 34 70 59c0 34 -17 56 -52 73l-34 16c-46 21 -105 52 -105 127c0 48 25 83 63 108l32 21c33 21 57 48 57 85
c0 48 -40 89 -110 89c-68 0 -126 -51 -126 -153v-488h-94v493c0 147 98 231 220 231s205 -74 205 -169c0 -78 -43 -120 -88 -148l-29 -18c-18 -11 -31 -24 -31 -46z" />
    <glyph glyph-name="agrave" unicode="&#xe0;" horiz-adv-x="523" 
d="M50 129c0 86 63 134 146 146l130 19c29 4 37 19 37 36c0 47 -31 86 -104 86c-66 0 -103 -41 -109 -97l-90 21c10 92 93 156 197 156c144 0 200 -82 200 -176v-241c0 -42 4 -67 6 -79h-92c-2 12 -5 30 -5 65c-21 -34 -69 -80 -155 -80c-98 0 -161 68 -161 144zM224 64
c77 0 139 37 139 142v22l-147 -22c-40 -6 -70 -29 -70 -72c0 -36 30 -70 78 -70zM235 543l-126 146h118l86 -146h-78z" />
    <glyph glyph-name="aacute" unicode="&#xe1;" horiz-adv-x="523" 
d="M50 129c0 86 63 134 146 146l130 19c29 4 37 19 37 36c0 47 -31 86 -104 86c-66 0 -103 -41 -109 -97l-90 21c10 92 93 156 197 156c144 0 200 -82 200 -176v-241c0 -42 4 -67 6 -79h-92c-2 12 -5 30 -5 65c-21 -34 -69 -80 -155 -80c-98 0 -161 68 -161 144zM224 64
c77 0 139 37 139 142v22l-147 -22c-40 -6 -70 -29 -70 -72c0 -36 30 -70 78 -70zM425 689l-126 -146h-79l87 146h118z" />
    <glyph glyph-name="acircumflex" unicode="&#xe2;" horiz-adv-x="523" 
d="M50 129c0 86 63 134 146 146l130 19c29 4 37 19 37 36c0 47 -31 86 -104 86c-66 0 -103 -41 -109 -97l-90 21c10 92 93 156 197 156c144 0 200 -82 200 -176v-241c0 -42 4 -67 6 -79h-92c-2 12 -5 30 -5 65c-21 -34 -69 -80 -155 -80c-98 0 -161 68 -161 144zM224 64
c77 0 139 37 139 142v22l-147 -22c-40 -6 -70 -29 -70 -72c0 -36 30 -70 78 -70zM195 545h-87l104 139h107l104 -139h-88l-70 81z" />
    <glyph glyph-name="atilde" unicode="&#xe3;" horiz-adv-x="523" 
d="M50 129c0 86 63 134 146 146l130 19c29 4 37 19 37 36c0 47 -31 86 -104 86c-66 0 -103 -41 -109 -97l-90 21c10 92 93 156 197 156c144 0 200 -82 200 -176v-241c0 -42 4 -67 6 -79h-92c-2 12 -5 30 -5 65c-21 -34 -69 -80 -155 -80c-98 0 -161 68 -161 144zM224 64
c77 0 139 37 139 142v22l-147 -22c-40 -6 -70 -29 -70 -72c0 -36 30 -70 78 -70zM422 677v-15c0 -74 -42 -109 -97 -109c-26 0 -47 10 -66 22l-14 9c-13 8 -24 14 -37 14c-19 0 -29 -10 -29 -43h-72v15c0 74 43 109 98 109c27 0 48 -10 67 -22l14 -9c13 -8 23 -14 36 -14
c20 0 29 11 29 43h71z" />
    <glyph glyph-name="adieresis" unicode="&#xe4;" horiz-adv-x="523" 
d="M50 129c0 86 63 134 146 146l130 19c29 4 37 19 37 36c0 47 -31 86 -104 86c-66 0 -103 -41 -109 -97l-90 21c10 92 93 156 197 156c144 0 200 -82 200 -176v-241c0 -42 4 -67 6 -79h-92c-2 12 -5 30 -5 65c-21 -34 -69 -80 -155 -80c-98 0 -161 68 -161 144zM224 64
c77 0 139 37 139 142v22l-147 -22c-40 -6 -70 -29 -70 -72c0 -36 30 -70 78 -70zM110 621c0 32 25 58 57 58c33 0 59 -26 59 -58c0 -33 -26 -58 -59 -58c-32 0 -57 25 -57 58zM297 621c0 32 25 58 58 58c32 0 58 -26 58 -58c0 -33 -26 -58 -58 -58c-33 0 -58 25 -58 58z" />
    <glyph glyph-name="aring" unicode="&#xe5;" horiz-adv-x="523" 
d="M50 129c0 86 63 134 146 146l130 19c29 4 37 19 37 36c0 47 -31 86 -104 86c-66 0 -103 -41 -109 -97l-90 21c10 92 93 156 197 156c144 0 200 -82 200 -176v-241c0 -42 4 -67 6 -79h-92c-2 12 -5 30 -5 65c-21 -34 -69 -80 -155 -80c-98 0 -161 68 -161 144zM224 64
c77 0 139 37 139 142v22l-147 -22c-40 -6 -70 -29 -70 -72c0 -36 30 -70 78 -70zM373 641c0 -61 -51 -109 -112 -109c-59 0 -111 48 -111 109c0 62 52 110 111 110c61 0 112 -48 112 -110zM309 641c0 27 -21 49 -49 49c-27 0 -47 -22 -47 -49s20 -48 47 -48
c28 0 49 21 49 48z" />
    <glyph glyph-name="ae" unicode="&#xe6;" horiz-adv-x="874" 
d="M749 165l82 -28c-27 -85 -110 -152 -216 -152c-81 0 -155 36 -200 104c-28 -51 -84 -104 -193 -104c-110 0 -172 68 -172 144c0 86 63 134 146 146l139 19c32 5 38 22 38 36c0 46 -37 87 -110 87c-68 0 -109 -43 -115 -94l-88 17c9 97 111 156 203 156
c82 0 140 -32 171 -80c43 50 104 80 169 80c148 0 231 -102 231 -252c0 -9 -1 -25 -2 -30h-362c2 -85 65 -146 145 -146c78 0 116 43 134 97zM229 64c67 0 144 36 144 141v23l-157 -22c-42 -6 -70 -30 -70 -74c0 -35 30 -68 83 -68zM473 290h263c-2 69 -48 123 -132 123
c-79 0 -127 -61 -131 -123z" />
    <glyph glyph-name="ccedilla" unicode="&#xe7;" horiz-adv-x="530" 
d="M253 -102l-33 39l32 50c-124 15 -212 121 -212 254c0 148 105 255 242 255c128 0 194 -80 214 -153l-85 -36c-12 47 -47 102 -129 102c-76 0 -146 -59 -146 -168s69 -169 147 -169c87 0 123 61 134 99l83 -36c-21 -62 -76 -132 -177 -147l-23 -35c56 0 97 -32 97 -82
c0 -47 -36 -88 -117 -88c-50 0 -90 20 -110 44l37 45c12 -13 38 -34 72 -34c24 0 47 10 47 33c0 18 -16 32 -44 32c-10 0 -21 -2 -29 -5z" />
    <glyph glyph-name="egrave" unicode="&#xe8;" horiz-adv-x="542" 
d="M141 290h263c-2 69 -47 123 -132 123c-79 0 -127 -61 -131 -123zM418 165l81 -28c-27 -85 -104 -152 -216 -152c-129 0 -242 94 -242 257c0 151 109 254 230 254c148 0 231 -102 231 -252c0 -12 -1 -24 -2 -30h-362c2 -86 64 -146 145 -146c78 0 117 43 135 97zM250 543
l-126 146h118l86 -146h-78z" />
    <glyph glyph-name="eacute" unicode="&#xe9;" horiz-adv-x="542" 
d="M141 290h263c-2 69 -47 123 -132 123c-79 0 -127 -61 -131 -123zM418 165l81 -28c-27 -85 -104 -152 -216 -152c-129 0 -242 94 -242 257c0 151 109 254 230 254c148 0 231 -102 231 -252c0 -12 -1 -24 -2 -30h-362c2 -86 64 -146 145 -146c78 0 117 43 135 97zM435 689
l-126 -146h-79l87 146h118z" />
    <glyph glyph-name="ecircumflex" unicode="&#xea;" horiz-adv-x="542" 
d="M141 290h263c-2 69 -47 123 -132 123c-79 0 -127 -61 -131 -123zM418 165l81 -28c-27 -85 -104 -152 -216 -152c-129 0 -242 94 -242 257c0 151 109 254 230 254c148 0 231 -102 231 -252c0 -12 -1 -24 -2 -30h-362c2 -86 64 -146 145 -146c78 0 117 43 135 97zM209 545
h-87l104 139h107l104 -139h-88l-70 81z" />
    <glyph glyph-name="edieresis" unicode="&#xeb;" horiz-adv-x="542" 
d="M141 290h263c-2 69 -47 123 -132 123c-79 0 -127 -61 -131 -123zM418 165l81 -28c-27 -85 -104 -152 -216 -152c-129 0 -242 94 -242 257c0 151 109 254 230 254c148 0 231 -102 231 -252c0 -12 -1 -24 -2 -30h-362c2 -86 64 -146 145 -146c78 0 117 43 135 97zM126 621
c0 32 25 58 57 58c33 0 59 -26 59 -58c0 -33 -26 -58 -59 -58c-32 0 -57 25 -57 58zM313 621c0 32 25 58 58 58c32 0 58 -26 58 -58c0 -33 -26 -58 -58 -58c-33 0 -58 25 -58 58z" />
    <glyph glyph-name="igrave" unicode="&#xec;" horiz-adv-x="253" 
d="M93 543l-126 146h118l86 -146h-78zM173 0h-93v481h93v-481z" />
    <glyph glyph-name="iacute" unicode="&#xed;" horiz-adv-x="253" 
d="M290 689l-126 -146h-79l87 146h118zM173 0h-93v481h93v-481z" />
    <glyph glyph-name="icircumflex" unicode="&#xee;" horiz-adv-x="253" 
d="M173 0h-93v481h93v-481zM57 545h-87l104 139h107l104 -139h-88l-70 81z" />
    <glyph glyph-name="idieresis" unicode="&#xef;" horiz-adv-x="253" 
d="M3 621c0 30 23 54 53 54s54 -24 54 -54s-24 -53 -54 -53s-53 23 -53 53zM144 621c0 30 23 54 53 54s54 -24 54 -54s-24 -53 -54 -53s-53 23 -53 53zM173 0h-93v481h93v-481z" />
    <glyph glyph-name="eth" unicode="&#xf0;" horiz-adv-x="570" 
d="M475 639l-81 -40c75 -70 137 -179 137 -338c0 -156 -92 -275 -246 -275c-144 0 -245 103 -245 241c0 148 115 237 231 237c60 0 111 -17 140 -50c-23 61 -59 107 -101 143l-131 -65l-29 63l94 47c-37 21 -75 35 -112 46l29 76c39 -9 108 -32 174 -77l109 55zM285 70
c80 0 149 55 149 157c0 103 -69 157 -149 157s-150 -56 -150 -157c0 -102 70 -157 150 -157z" />
    <glyph glyph-name="ntilde" unicode="&#xf1;" horiz-adv-x="562" 
d="M174 278v-278h-94v481h92v-69c35 60 92 83 148 83c115 0 172 -83 172 -190v-305h-94v289c0 67 -28 121 -112 121c-74 0 -112 -59 -112 -132zM452 677v-15c0 -74 -42 -109 -97 -109c-26 0 -47 10 -66 22l-14 9c-13 8 -24 14 -37 14c-19 0 -29 -10 -29 -43h-72v15
c0 74 43 109 98 109c27 0 48 -10 67 -22l14 -9c13 -8 23 -14 36 -14c20 0 29 11 29 43h71z" />
    <glyph glyph-name="ograve" unicode="&#xf2;" horiz-adv-x="572" 
d="M286 69c80 0 150 60 150 172c0 111 -70 171 -150 171s-150 -60 -150 -171c0 -112 70 -172 150 -172zM286 496c144 0 246 -109 246 -255c0 -147 -102 -256 -246 -256s-246 109 -246 256c0 146 102 255 246 255zM251 543l-126 146h118l86 -146h-78z" />
    <glyph glyph-name="oacute" unicode="&#xf3;" horiz-adv-x="572" 
d="M286 69c80 0 150 60 150 172c0 111 -70 171 -150 171s-150 -60 -150 -171c0 -112 70 -172 150 -172zM286 496c144 0 246 -109 246 -255c0 -147 -102 -256 -246 -256s-246 109 -246 256c0 146 102 255 246 255zM435 689l-126 -146h-79l87 146h118z" />
    <glyph glyph-name="ocircumflex" unicode="&#xf4;" horiz-adv-x="572" 
d="M286 69c80 0 150 60 150 172c0 111 -70 171 -150 171s-150 -60 -150 -171c0 -112 70 -172 150 -172zM286 496c144 0 246 -109 246 -255c0 -147 -102 -256 -246 -256s-246 109 -246 256c0 146 102 255 246 255zM216 545h-87l104 139h107l104 -139h-88l-70 81z" />
    <glyph glyph-name="otilde" unicode="&#xf5;" horiz-adv-x="572" 
d="M286 69c80 0 150 60 150 172c0 111 -70 171 -150 171s-150 -60 -150 -171c0 -112 70 -172 150 -172zM286 496c144 0 246 -109 246 -255c0 -147 -102 -256 -246 -256s-246 109 -246 256c0 146 102 255 246 255zM445 677v-15c0 -74 -42 -109 -97 -109c-26 0 -47 10 -66 22
l-14 9c-13 8 -24 14 -37 14c-19 0 -29 -10 -29 -43h-72v15c0 74 43 109 98 109c27 0 48 -10 67 -22l14 -9c13 -8 23 -14 36 -14c20 0 29 11 29 43h71z" />
    <glyph glyph-name="odieresis" unicode="&#xf6;" horiz-adv-x="572" 
d="M286 69c80 0 150 60 150 172c0 111 -70 171 -150 171s-150 -60 -150 -171c0 -112 70 -172 150 -172zM286 496c144 0 246 -109 246 -255c0 -147 -102 -256 -246 -256s-246 109 -246 256c0 146 102 255 246 255zM134 621c0 32 25 58 57 58c33 0 59 -26 59 -58
c0 -33 -26 -58 -59 -58c-32 0 -57 25 -57 58zM321 621c0 32 25 58 58 58c32 0 58 -26 58 -58c0 -33 -26 -58 -58 -58c-33 0 -58 25 -58 58z" />
    <glyph glyph-name="divide" unicode="&#xf7;" horiz-adv-x="567" 
d="M218 110c0 35 30 64 65 64s64 -29 64 -64s-29 -65 -64 -65s-65 30 -65 65zM218 465c0 35 30 64 65 64s64 -29 64 -64s-29 -65 -64 -65s-65 30 -65 65zM55 246v83h457v-83h-457z" />
    <glyph glyph-name="oslash" unicode="&#xf8;" horiz-adv-x="572" 
d="M286 496c47 0 89 -12 125 -32l50 65l60 -48l-51 -66c39 -45 62 -105 62 -174c0 -147 -102 -256 -246 -256c-47 0 -89 12 -124 31l-49 -63l-60 48l49 64c-39 45 -62 106 -62 176c0 146 102 255 246 255zM136 241c0 -44 10 -74 25 -101l196 254c-22 12 -46 18 -71 18
c-80 0 -150 -60 -150 -171zM286 69c80 0 150 60 150 172c0 39 -9 73 -24 99l-196 -254c21 -12 45 -17 70 -17z" />
    <glyph glyph-name="ugrave" unicode="&#xf9;" horiz-adv-x="566" 
d="M397 58c-26 -50 -86 -73 -142 -73c-112 0 -180 84 -180 193v303h94v-289c0 -66 30 -124 109 -124c76 0 114 50 114 123v290h94v-392c0 -38 3 -72 5 -89h-90c-2 11 -4 38 -4 58zM256 543l-126 146h118l86 -146h-78z" />
    <glyph glyph-name="uacute" unicode="&#xfa;" horiz-adv-x="566" 
d="M397 58c-26 -50 -86 -73 -142 -73c-112 0 -180 84 -180 193v303h94v-289c0 -66 30 -124 109 -124c76 0 114 50 114 123v290h94v-392c0 -38 3 -72 5 -89h-90c-2 11 -4 38 -4 58zM423 689l-126 -146h-79l87 146h118z" />
    <glyph glyph-name="ucircumflex" unicode="&#xfb;" horiz-adv-x="566" 
d="M397 58c-26 -50 -86 -73 -142 -73c-112 0 -180 84 -180 193v303h94v-289c0 -66 30 -124 109 -124c76 0 114 50 114 123v290h94v-392c0 -38 3 -72 5 -89h-90c-2 11 -4 38 -4 58zM210 545h-87l104 139h107l104 -139h-88l-70 81z" />
    <glyph glyph-name="udieresis" unicode="&#xfc;" horiz-adv-x="566" 
d="M397 58c-26 -50 -86 -73 -142 -73c-112 0 -180 84 -180 193v303h94v-289c0 -66 30 -124 109 -124c76 0 114 50 114 123v290h94v-392c0 -38 3 -72 5 -89h-90c-2 11 -4 38 -4 58zM128 621c0 32 25 58 57 58c33 0 59 -26 59 -58c0 -33 -26 -58 -59 -58c-32 0 -57 25 -57 58z
M315 621c0 32 25 58 58 58c32 0 58 -26 58 -58c0 -33 -26 -58 -58 -58c-33 0 -58 25 -58 58z" />
    <glyph glyph-name="yacute" unicode="&#xfd;" horiz-adv-x="523" 
d="M200 -201h-103l120 254l-207 428h108l150 -332l144 332h101zM409 689l-126 -146h-79l87 146h118z" />
    <glyph glyph-name="thorn" unicode="&#xfe;" horiz-adv-x="593" 
d="M173 -190h-93v914h94v-313c27 45 83 81 158 81c144 0 221 -111 221 -251c0 -143 -83 -254 -224 -254c-74 0 -130 35 -156 78v-255zM457 241c0 96 -54 168 -142 168c-86 0 -143 -72 -143 -168c0 -99 57 -170 143 -170c87 0 142 71 142 170z" />
    <glyph glyph-name="ydieresis" unicode="&#xff;" horiz-adv-x="523" 
d="M200 -201h-103l120 254l-207 428h108l150 -332l144 332h101zM110 621c0 32 25 58 57 58c33 0 59 -26 59 -58c0 -33 -26 -58 -59 -58c-32 0 -57 25 -57 58zM297 621c0 32 25 58 58 58c32 0 58 -26 58 -58c0 -33 -26 -58 -58 -58c-33 0 -58 25 -58 58z" />
    <glyph glyph-name="dotlessi" unicode="&#x131;" horiz-adv-x="253" 
d="M173 0h-93v481h93v-481z" />
    <glyph glyph-name="Lslash" unicode="&#x141;" horiz-adv-x="559" 
d="M534 0h-433v289l-96 -42v87l96 42v333h98v-289l157 69v-87l-157 -70v-240h335v-92z" />
    <glyph glyph-name="lslash" unicode="&#x142;" horiz-adv-x="288" 
d="M188 0h-94v272l-89 -39v87l89 39v365h94v-323l95 42v-87l-95 -42v-314z" />
    <glyph glyph-name="OE" unicode="&#x152;" horiz-adv-x="1148" 
d="M145 355c0 -185 124 -280 256 -280s256 95 256 280s-124 279 -256 279s-256 -94 -256 -279zM1088 0h-431v93c-68 -72 -162 -108 -256 -108c-178 0 -356 133 -356 370s178 369 356 369c94 0 188 -36 256 -108v93h431v-91h-333v-218h302v-92h-302v-217h333v-91z" />
    <glyph glyph-name="oe" unicode="&#x153;" horiz-adv-x="937" 
d="M286 69c80 0 150 60 150 172c0 111 -70 171 -150 171s-150 -60 -150 -171c0 -112 70 -172 150 -172zM536 290h263c-2 69 -48 123 -132 123c-79 0 -127 -61 -131 -123zM813 165l81 -28c-27 -85 -104 -152 -216 -152c-78 0 -150 34 -195 97c-43 -60 -113 -97 -197 -97
c-144 0 -246 109 -246 256c0 146 102 255 246 255c84 0 154 -38 197 -98c43 61 111 98 183 98c148 0 231 -102 231 -252c0 -10 -1 -24 -2 -30h-362c2 -85 65 -146 145 -146c78 0 117 43 135 97z" />
    <glyph glyph-name="Scaron" unicode="&#x160;" horiz-adv-x="593" 
d="M542 548l-88 -31c-8 51 -51 121 -150 121c-80 0 -137 -52 -137 -118c0 -51 31 -90 91 -103l106 -23c118 -26 184 -100 184 -199c0 -110 -94 -210 -245 -210c-171 0 -252 110 -265 211l94 30c7 -79 63 -152 170 -152c98 0 146 51 146 113c0 51 -35 95 -106 110l-101 22
c-101 22 -173 88 -173 194c0 111 103 211 234 211c160 0 224 -99 240 -176zM133 878h91l81 -64l85 64h92l-117 -119h-120z" />
    <glyph glyph-name="scaron" unicode="&#x161;" horiz-adv-x="452" 
d="M35 125l85 30c6 -50 44 -90 112 -90c53 0 82 30 82 64c0 30 -22 53 -62 62l-82 18c-75 16 -120 67 -120 135c0 82 77 152 171 152c132 0 173 -86 183 -129l-83 -31c-4 25 -24 80 -100 80c-48 0 -80 -31 -80 -64c0 -29 18 -50 55 -58l78 -17c87 -19 133 -72 133 -143
c0 -68 -57 -149 -176 -149c-132 0 -188 85 -196 140zM69 687h87l70 -81l70 81h88l-102 -142h-111z" />
    <glyph glyph-name="Ydieresis" unicode="&#x178;" horiz-adv-x="618" 
d="M135 819c0 33 26 59 59 59s59 -26 59 -59s-26 -59 -59 -59s-59 26 -59 59zM366 819c0 33 26 59 59 59s59 -26 59 -59s-26 -59 -59 -59s-59 26 -59 59zM260 303l-250 406h118l184 -316l184 316h112l-250 -406v-303h-98v303z" />
    <glyph glyph-name="Zcaron" unicode="&#x17d;" horiz-adv-x="632" 
d="M592 0h-547v98l423 520h-413v91h532v-95l-425 -522h430v-92zM149 878h91l81 -64l85 64h92l-117 -119h-120z" />
    <glyph glyph-name="zcaron" unicode="&#x17e;" horiz-adv-x="466" 
d="M78 687h87l70 -81l70 81h88l-102 -142h-111zM426 0h-386v82l264 314h-260v85h377v-82l-264 -314h269v-85z" />
    <glyph glyph-name="florin" unicode="&#x192;" horiz-adv-x="481" 
d="M122 20l75 378h-110v83h127l23 113c20 102 92 145 165 145c38 0 55 -4 74 -10v-83c-14 4 -32 7 -53 7c-35 0 -79 -9 -96 -92l-16 -80h129v-83h-146l-82 -411c-20 -102 -92 -145 -165 -145c-41 0 -58 4 -77 10v83c14 -4 32 -7 56 -7c35 0 80 10 96 92z" />
    <glyph glyph-name="circumflex" unicode="&#x2c6;" horiz-adv-x="385" 
d="M122 545h-87l104 139h107l104 -139h-88l-70 81z" />
    <glyph glyph-name="caron" unicode="&#x2c7;" horiz-adv-x="385" 
d="M35 687h87l70 -81l70 81h88l-102 -142h-111z" />
    <glyph glyph-name="uni02C9" unicode="&#x2c9;" horiz-adv-x="343" 
d="M308 577h-273v81h273v-81z" />
    <glyph glyph-name="breve" unicode="&#x2d8;" horiz-adv-x="362" 
d="M181 545c-94 0 -145 71 -146 142h73c2 -31 22 -65 73 -65s71 35 73 65h73c-1 -71 -49 -142 -146 -142z" />
    <glyph glyph-name="dotaccent" unicode="&#x2d9;" horiz-adv-x="174" 
d="M25 616c0 34 28 62 62 62s62 -28 62 -62s-28 -62 -62 -62s-62 28 -62 62z" />
    <glyph glyph-name="ring" unicode="&#x2da;" horiz-adv-x="293" 
d="M258 641c0 -61 -51 -109 -112 -109c-59 0 -111 48 -111 109c0 62 52 110 111 110c61 0 112 -48 112 -110zM194 641c0 27 -21 49 -49 49c-27 0 -47 -22 -47 -49s20 -48 47 -48c28 0 49 21 49 48z" />
    <glyph glyph-name="ogonek" unicode="&#x2db;" horiz-adv-x="233" 
d="M33 -115c0 73 57 111 102 131l63 -16c-38 -18 -85 -48 -85 -97c0 -34 26 -47 53 -47c16 0 24 2 32 4v-68c-13 -5 -25 -8 -50 -8c-62 0 -115 37 -115 101z" />
    <glyph glyph-name="tilde" unicode="&#x2dc;" horiz-adv-x="377" 
d="M346 677v-15c0 -74 -42 -109 -97 -109c-26 0 -47 10 -66 22l-14 9c-13 8 -24 14 -37 14c-19 0 -29 -10 -29 -43h-72v15c0 74 43 109 98 109c27 0 48 -10 67 -22l14 -9c13 -8 23 -14 36 -14c20 0 29 11 29 43h71z" />
    <glyph glyph-name="hungarumlaut" unicode="&#x2dd;" horiz-adv-x="367" 
d="M191 689l-90 -146h-66l51 146h105zM332 689l-100 -146h-66l61 146h105z" />
    <glyph glyph-name="uni0394" unicode="&#x394;" horiz-adv-x="662" 
d="M0 0l278 709h105l279 -709h-662zM329 597l-190 -507h383z" />
    <glyph glyph-name="uni03A9" unicode="&#x3a9;" horiz-adv-x="796" 
d="M398 636c-123 0 -253 -86 -253 -248c0 -145 111 -235 210 -256v-132h-305v88h202c-102 37 -207 145 -207 299c0 212 169 337 353 337s353 -125 353 -337c0 -154 -105 -262 -208 -299h203v-88h-305v132c99 21 210 111 210 256c0 162 -130 248 -253 248z" />
    <glyph glyph-name="uni03BC" unicode="&#x3bc;" horiz-adv-x="571" 
d="M402 58c-26 -50 -86 -73 -142 -73c-36 0 -62 8 -86 20v-195h-94v671h94v-289c0 -66 30 -124 109 -124c76 0 114 50 114 123v290h94v-392c0 -38 3 -76 5 -89h-90c-2 11 -4 38 -4 58z" />
    <glyph glyph-name="pi" unicode="&#x3c0;" horiz-adv-x="615" 
d="M565 5c-12 -5 -31 -12 -61 -12c-82 0 -118 58 -118 119v287h-165v-399h-94v399h-82v82h518v-82h-83v-277c0 -36 24 -49 54 -49c10 0 21 1 31 4v-72z" />
    <glyph glyph-name="uni2007" unicode="&#x2007;" horiz-adv-x="614" 
 />
    <glyph glyph-name="uni2008" unicode="&#x2008;" horiz-adv-x="279" 
 />
    <glyph glyph-name="uni200B" unicode="&#x200b;" horiz-adv-x="0" 
 />
    <glyph glyph-name="endash" unicode="&#x2013;" horiz-adv-x="642" 
d="M577 246h-512v82h512v-82z" />
    <glyph glyph-name="emdash" unicode="&#x2014;" horiz-adv-x="1103" 
d="M1028 246h-953v82h953v-82z" />
    <glyph glyph-name="quoteleft" unicode="&#x2018;" horiz-adv-x="218" 
d="M178 515c0 -33 -28 -60 -65 -60c-39 0 -73 28 -73 85c0 118 77 169 133 175v-47c-44 -10 -74 -56 -75 -97c3 2 10 5 20 5c33 0 60 -23 60 -61z" />
    <glyph glyph-name="quoteright" unicode="&#x2019;" horiz-adv-x="224" 
d="M40 656c0 33 29 62 68 62c40 0 76 -30 76 -88c0 -124 -80 -175 -138 -182v48c45 10 76 56 77 101c-3 -2 -10 -5 -20 -5c-35 0 -63 24 -63 64z" />
    <glyph glyph-name="quotesinglbase" unicode="&#x201a;" horiz-adv-x="224" 
d="M40 61c0 33 29 62 68 62c40 0 76 -30 76 -88c0 -124 -80 -175 -138 -182v48c45 10 76 56 77 101c-3 -2 -10 -5 -20 -5c-35 0 -63 24 -63 64z" />
    <glyph glyph-name="quotedblleft" unicode="&#x201c;" horiz-adv-x="389" 
d="M349 520c0 -33 -28 -60 -65 -60c-39 0 -73 28 -73 85c0 118 77 169 133 175v-47c-44 -10 -74 -56 -75 -97c3 2 10 5 20 5c33 0 60 -23 60 -61zM178 520c0 -33 -28 -60 -65 -60c-39 0 -73 28 -73 85c0 118 77 169 133 175v-47c-44 -10 -74 -56 -75 -97c3 2 10 5 20 5
c33 0 60 -23 60 -61z" />
    <glyph glyph-name="quotedblright" unicode="&#x201d;" horiz-adv-x="389" 
d="M40 655c0 33 28 60 65 60c39 0 73 -28 73 -85c0 -118 -77 -167 -133 -175v47c44 10 74 54 75 97c-3 -2 -10 -5 -20 -5c-33 0 -60 23 -60 61zM211 655c0 33 28 60 65 60c39 0 73 -28 73 -85c0 -118 -77 -167 -133 -175v47c44 10 74 54 75 97c-3 -2 -10 -5 -20 -5
c-33 0 -60 23 -60 61z" />
    <glyph glyph-name="quotedblbase" unicode="&#x201e;" horiz-adv-x="389" 
d="M40 58c0 33 28 60 65 60c39 0 73 -28 73 -85c0 -118 -77 -167 -133 -175v47c44 10 74 54 75 97c-3 -2 -10 -5 -20 -5c-33 0 -60 23 -60 61zM211 58c0 33 28 60 65 60c39 0 73 -28 73 -85c0 -118 -77 -167 -133 -175v47c44 10 74 54 75 97c-3 -2 -10 -5 -20 -5
c-33 0 -60 23 -60 61z" />
    <glyph glyph-name="dagger" unicode="&#x2020;" horiz-adv-x="386" 
d="M234 162h-82v317h-127v81h127v149h82v-149h127v-81h-127v-317z" />
    <glyph glyph-name="daggerdbl" unicode="&#x2021;" horiz-adv-x="426" 
d="M45 230h127v249h-127v81h127v149h82v-149h127v-81h-127v-249h127v-81h-127v-149h-82v149h-127v81z" />
    <glyph glyph-name="bullet" unicode="&#x2022;" horiz-adv-x="554" 
d="M70 289c0 115 93 208 207 208s207 -93 207 -208c0 -113 -93 -207 -207 -207s-207 94 -207 207z" />
    <glyph glyph-name="ellipsis" unicode="&#x2026;" horiz-adv-x="932" 
d="M842 59c0 -36 -28 -64 -64 -64s-65 28 -65 64s29 65 65 65s64 -29 64 -65zM530 59c0 -36 -28 -64 -64 -64s-65 28 -65 64s29 65 65 65s64 -29 64 -65zM219 59c0 -36 -28 -64 -64 -64s-65 28 -65 64s29 65 65 65s64 -29 64 -65z" />
    <glyph glyph-name="perthousand" unicode="&#x2030;" horiz-adv-x="1055" 
d="M138 498c0 -46 34 -79 77 -79c44 0 77 33 77 79c0 45 -33 78 -77 78c-43 0 -77 -33 -77 -78zM55 498c0 88 74 157 160 157s161 -69 161 -157c0 -89 -75 -158 -161 -158s-160 69 -160 158zM534 150c0 -46 34 -79 77 -79c44 0 77 33 77 79c0 45 -33 78 -77 78
c-43 0 -77 -33 -77 -78zM227 0h-92l466 648h90zM772 150c0 -46 34 -79 77 -79c44 0 77 33 77 79c0 45 -33 78 -77 78c-43 0 -77 -33 -77 -78zM451 150c0 88 74 157 160 157c49 0 92 -23 119 -60c27 37 69 60 119 60c86 0 161 -69 161 -157c0 -89 -75 -158 -161 -158
c-50 0 -92 23 -119 59c-27 -36 -70 -59 -119 -59c-86 0 -160 69 -160 158z" />
    <glyph glyph-name="guilsinglleft" unicode="&#x2039;" horiz-adv-x="276" 
d="M256 99h-93l-133 191l133 191h93l-131 -191z" />
    <glyph glyph-name="guilsinglright" unicode="&#x203a;" horiz-adv-x="276" 
d="M113 99h-93l131 191l-131 191h93l133 -191z" />
    <glyph glyph-name="uni2042" unicode="&#x2042;" horiz-adv-x="835" 
d="M453 709v-121l111 38l20 -65l-111 -36l74 -95l-55 -41l-75 98l-70 -97l-55 41l71 94l-112 36l21 65l110 -38v121h71zM237 312v-121l111 38l20 -65l-111 -36l74 -95l-55 -41l-75 98l-70 -97l-55 41l71 94l-112 36l21 65l110 -38v121h71zM669 312v-121l111 38l20 -65
l-111 -36l74 -95l-55 -41l-75 98l-70 -97l-55 41l71 94l-112 36l21 65l110 -38v121h71z" />
    <glyph glyph-name="fraction" unicode="&#x2044;" horiz-adv-x="556" 
d="M92 0h-92l466 648h90z" />
    <glyph glyph-name="uni2051" unicode="&#x2051;" horiz-adv-x="423" 
d="M247 709v-121l111 38l20 -65l-111 -36l74 -95l-55 -41l-75 98l-70 -97l-55 41l71 94l-112 36l21 65l110 -38v121h71zM247 312v-121l111 38l20 -65l-111 -36l74 -95l-55 -41l-75 98l-70 -97l-55 41l71 94l-112 36l21 65l110 -38v121h71z" />
    <glyph glyph-name="uni2070" unicode="&#x2070;" horiz-adv-x="426" 
d="M138 526c0 -54 9 -123 75 -123s75 69 75 123s-9 124 -75 124s-75 -69 -75 -124zM60 526c0 48 9 96 35 132c22 31 57 58 118 58s96 -27 118 -58c26 -36 35 -84 35 -132s-9 -95 -35 -131c-22 -31 -57 -58 -118 -58s-96 27 -118 58c-26 36 -35 83 -35 131z" />
    <glyph glyph-name="uni2074" unicode="&#x2074;" horiz-adv-x="446" 
d="M60 416v73l177 220h85v-228h64v-65h-64v-72h-77v72h-185zM245 481v139l-111 -139h111z" />
    <glyph glyph-name="uni2075" unicode="&#x2075;" horiz-adv-x="404" 
d="M60 429l66 30c9 -35 37 -57 73 -57c39 0 67 22 67 61c0 41 -29 62 -67 62c-27 0 -48 -11 -64 -27l-64 24l49 187h204v-66h-154l-23 -86c18 20 46 28 73 28c74 0 124 -46 124 -119c0 -71 -52 -129 -145 -129c-72 0 -126 45 -139 92z" />
    <glyph glyph-name="uni2076" unicode="&#x2076;" horiz-adv-x="418" 
d="M340 698l-18 -57c-20 9 -41 13 -62 13c-64 0 -112 -36 -123 -105c17 25 54 43 91 43c77 0 130 -46 130 -126c0 -77 -64 -129 -147 -129c-74 0 -151 52 -151 167c0 130 83 213 194 213c33 0 66 -7 86 -19zM143 465c0 -41 35 -63 69 -63s68 22 68 63s-34 63 -68 63
s-69 -22 -69 -63z" />
    <glyph glyph-name="uni2077" unicode="&#x2077;" horiz-adv-x="417" 
d="M357 709v-69c-35 -24 -136 -107 -154 -296h-82c18 198 136 299 136 299h-197v66h297z" />
    <glyph glyph-name="uni2078" unicode="&#x2078;" horiz-adv-x="410" 
d="M205 561c35 0 57 19 57 48c0 26 -21 45 -57 45s-57 -19 -57 -45c0 -29 22 -48 57 -48zM205 401c44 0 67 20 67 50c0 29 -24 50 -67 50s-67 -21 -67 -50c0 -30 23 -50 67 -50zM205 337c-93 0 -145 47 -145 108c0 36 25 70 68 86c-36 15 -56 47 -56 80c0 62 56 105 133 105
s133 -43 133 -105c0 -33 -20 -65 -56 -80c43 -16 68 -50 68 -86c0 -61 -52 -108 -145 -108z" />
    <glyph glyph-name="uni2079" unicode="&#x2079;" horiz-adv-x="416" 
d="M78 356l18 59c20 -9 41 -13 62 -13c64 0 115 31 123 103c-17 -25 -54 -43 -91 -43c-75 0 -130 48 -130 126c0 76 64 129 147 129c74 0 149 -52 149 -167c0 -138 -81 -213 -192 -213c-33 0 -66 7 -86 19zM273 588c0 41 -33 64 -69 64s-68 -23 -68 -64s32 -64 68 -64
s69 23 69 64z" />
    <glyph glyph-name="uni2080" unicode="&#x2080;" horiz-adv-x="426" 
d="M138 110c0 -54 9 -123 75 -123s75 69 75 123s-9 124 -75 124s-75 -69 -75 -124zM60 110c0 48 9 96 35 132c22 31 57 58 118 58s96 -27 118 -58c26 -36 35 -84 35 -132s-9 -95 -35 -131c-22 -31 -57 -58 -118 -58s-96 27 -118 58c-26 36 -35 83 -35 131z" />
    <glyph glyph-name="uni2081" unicode="&#x2081;" horiz-adv-x="303" 
d="M213 -72h-77v245h-86v52c49 1 85 31 92 68h71v-365z" />
    <glyph glyph-name="uni2082" unicode="&#x2082;" horiz-adv-x="389" 
d="M141 152h-74c-2 10 -3 23 -3 31c0 63 50 117 132 117s131 -54 131 -115c0 -47 -27 -83 -70 -110l-72 -45c-15 -10 -28 -23 -31 -37h175v-65h-268v13c0 59 26 109 85 145l60 37c28 17 43 39 43 63c0 26 -19 50 -54 50c-34 0 -57 -23 -57 -58c0 -4 1 -17 3 -26z" />
    <glyph glyph-name="uni2083" unicode="&#x2083;" horiz-adv-x="412" 
d="M178 94l-29 56l95 79h-171v65h271v-63l-100 -80c57 -5 108 -41 108 -109c0 -66 -58 -121 -145 -121s-135 51 -147 103l67 27c6 -38 38 -64 79 -64s68 24 68 55c0 42 -35 56 -68 56c-10 0 -21 -2 -28 -4z" />
    <glyph glyph-name="uni2084" unicode="&#x2084;" horiz-adv-x="446" 
d="M60 0v73l177 220h85v-228h64v-65h-64v-72h-77v72h-185zM245 65v139l-111 -139h111z" />
    <glyph glyph-name="uni2085" unicode="&#x2085;" horiz-adv-x="404" 
d="M60 13l66 30c9 -35 37 -57 73 -57c39 0 67 22 67 61c0 41 -29 62 -67 62c-27 0 -48 -11 -64 -27l-64 24l49 187h204v-66h-154l-23 -86c18 20 46 28 73 28c74 0 124 -46 124 -119c0 -71 -52 -129 -145 -129c-72 0 -126 45 -139 92z" />
    <glyph glyph-name="uni2086" unicode="&#x2086;" horiz-adv-x="418" 
d="M340 282l-18 -57c-20 9 -41 13 -62 13c-64 0 -112 -36 -123 -105c17 25 54 43 91 43c77 0 130 -46 130 -126c0 -77 -64 -129 -147 -129c-74 0 -151 52 -151 167c0 130 83 213 194 213c33 0 66 -7 86 -19zM143 49c0 -41 35 -63 69 -63s68 22 68 63s-34 63 -68 63
s-69 -22 -69 -63z" />
    <glyph glyph-name="uni2087" unicode="&#x2087;" horiz-adv-x="417" 
d="M357 293v-69c-35 -24 -136 -107 -154 -296h-82c18 198 136 299 136 299h-197v66h297z" />
    <glyph glyph-name="uni2088" unicode="&#x2088;" horiz-adv-x="410" 
d="M205 145c35 0 57 19 57 48c0 26 -21 45 -57 45s-57 -19 -57 -45c0 -29 22 -48 57 -48zM205 -15c44 0 67 20 67 50c0 29 -24 50 -67 50s-67 -21 -67 -50c0 -30 23 -50 67 -50zM205 -79c-93 0 -145 47 -145 108c0 36 25 70 68 86c-36 15 -56 47 -56 80c0 62 56 105 133 105
s133 -43 133 -105c0 -33 -20 -65 -56 -80c43 -16 68 -50 68 -86c0 -61 -52 -108 -145 -108z" />
    <glyph glyph-name="uni2089" unicode="&#x2089;" horiz-adv-x="416" 
d="M78 -60l18 59c20 -9 41 -13 62 -13c64 0 115 31 123 103c-17 -25 -54 -43 -91 -43c-75 0 -130 48 -130 126c0 76 64 129 147 129c74 0 149 -52 149 -167c0 -138 -81 -213 -192 -213c-33 0 -66 7 -86 19zM273 172c0 41 -33 64 -69 64s-68 -23 -68 -64s32 -64 68 -64
s69 23 69 64z" />
    <glyph glyph-name="Euro" unicode="&#x20ac;" horiz-adv-x="689" 
d="M65 282h79c-1 11 -2 30 -2 43s1 29 2 40h-79v78h94c47 146 182 220 310 220c67 0 126 -15 171 -47l-40 -77c-36 26 -81 37 -131 37c-89 0 -171 -44 -208 -133h293l-39 -78h-273c-2 -12 -3 -26 -3 -40c0 -18 1 -33 3 -43h237l-39 -80h-177c37 -87 115 -130 203 -130
c59 0 113 18 149 54l49 -70c-49 -42 -118 -71 -198 -71c-127 0 -257 74 -305 217h-96v80z" />
    <glyph glyph-name="uni2113" unicode="&#x2113;" horiz-adv-x="407" 
d="M35 259c8 2 38 11 68 25v222c0 98 54 158 134 158c85 0 135 -55 135 -150c0 -103 -63 -214 -175 -283v-71c0 -54 29 -77 67 -78c37 0 69 11 90 29v-85c-6 -9 -34 -31 -94 -31c-108 0 -157 68 -157 160v33c-22 -7 -44 -13 -68 -17v88zM278 514c0 43 -10 64 -39 64
c-23 0 -42 -18 -42 -71v-164c44 40 81 95 81 171z" />
    <glyph glyph-name="trademark" unicode="&#x2122;" horiz-adv-x="859" 
d="M330 641h-112v-297h-76v297h-112v68h300v-68zM799 344h-72v233l-101 -233h-59l-98 230v-230h-76v365h99l107 -254l107 254h93v-365z" />
    <glyph glyph-name="Omega" unicode="&#x2126;" horiz-adv-x="796" 
d="M398 636c-123 0 -253 -86 -253 -248c0 -145 111 -235 210 -256v-132h-305v88h202c-102 37 -207 145 -207 299c0 212 169 337 353 337s353 -125 353 -337c0 -154 -105 -262 -208 -299h203v-88h-305v132c99 21 210 111 210 256c0 162 -130 248 -253 248z" />
    <glyph glyph-name="uni2160" unicode="&#x2160;" horiz-adv-x="506" 
d="M451 648v-88h-150v-472h150v-88h-396v88h150v472h-150v88h396z" />
    <glyph glyph-name="uni2161" unicode="&#x2161;" horiz-adv-x="770" 
d="M715 88v-88h-660v88h140v472h-140v88h660v-88h-140v-472h140zM479 88v472h-188v-472h188z" />
    <glyph glyph-name="uni2162" unicode="&#x2162;" horiz-adv-x="1044" 
d="M989 88v-88h-934v88h140v472h-140v88h934v-88h-140v-472h140zM753 88v472h-183v-472h183zM291 560v-472h183v472h-183z" />
    <glyph glyph-name="uni2163" unicode="&#x2163;" horiz-adv-x="1006" 
d="M951 88v-88h-896v88h130v472h-130v88h895v-88h-115l-163 -472h279zM281 560v-472h240l-160 472h-80zM599 141l137 419h-273z" />
    <glyph glyph-name="uni2164" unicode="&#x2164;" horiz-adv-x="803" 
d="M748 648v-88h-110l-163 -472h269v-88h-684v88h264l-160 472h-109v88h693zM402 141l137 419h-273z" />
    <glyph glyph-name="uni2165" unicode="&#x2165;" horiz-adv-x="1006" 
d="M951 88v-88h-896v88h274l-160 472h-114v88h895v-88h-129v-472h130zM643 560l-163 -472h245v472h-82zM407 141l137 419h-273z" />
    <glyph glyph-name="uni2166" unicode="&#x2166;" horiz-adv-x="1293" 
d="M1238 88v-88h-1183v88h273l-159 472h-114v88h1183v-88h-140v-472h140zM1002 88v472h-182v-472h182zM642 560l-163 -472h245v472h-82zM406 141l137 419h-272z" />
    <glyph glyph-name="uni2167" unicode="&#x2167;" horiz-adv-x="1542" 
d="M1487 88v-88h-1432v88h270l-156 472h-114v88h1432v-88h-135v-472h135zM814 560v-472h173v472h-173zM1083 560v-472h173v472h-173zM634 560l-160 -472h244v472h-84zM402 141l132 419h-263z" />
    <glyph glyph-name="uni2168" unicode="&#x2168;" horiz-adv-x="976" 
d="M921 88v-88h-866v88h130v472h-130v88h865v-88h-105l-170 -243l161 -229h115zM538 317l-171 243h-86v-472h92zM477 560l114 -168l115 168h-229zM590 243l-109 -155h215z" />
    <glyph glyph-name="uni2169" unicode="&#x2169;" horiz-adv-x="767" 
d="M711 648v-88h-105l-170 -243l161 -229h115v-88h-657v88h109l165 229l-171 243h-103v88h656zM268 560l114 -168l115 168h-229zM381 243l-109 -155h215z" />
    <glyph glyph-name="uni216C" unicode="&#x216c;" horiz-adv-x="654" 
d="M599 281v-281h-544v88h130v472h-130v88h366v-88h-140v-472h222v193h96z" />
    <glyph glyph-name="uni216D" unicode="&#x216d;" horiz-adv-x="722" 
d="M667 231v-231h-96v67c-41 -51 -101 -81 -192 -81c-163 0 -324 122 -324 339c0 218 162 339 324 339c89 0 149 -28 190 -77v63h96v-226h-96c-10 92 -76 152 -190 152c-122 0 -227 -80 -227 -251s105 -251 227 -251c131 0 187 85 192 157h96z" />
    <glyph glyph-name="uni216E" unicode="&#x216e;" horiz-adv-x="735" 
d="M55 648h321c158 0 304 -110 304 -325c0 -212 -145 -323 -310 -323h-315v88h135v472h-135v88zM286 88h86c106 0 210 73 210 235c0 157 -96 237 -212 237h-84v-472z" />
    <glyph glyph-name="uni216F" unicode="&#x216f;" horiz-adv-x="1069" 
d="M321 648l210 -515l212 515h271v-88h-132v-472h132v-88h-325v88h99v428l-219 -516h-76l-217 516v-428h104v-88h-325v88h127v472h-127v88h266z" />
    <glyph glyph-name="arrowleft" unicode="&#x2190;" horiz-adv-x="1026" 
d="M221 102l-221 185l221 186v-144h735v-83h-735v-144z" />
    <glyph glyph-name="arrowup" unicode="&#x2191;" horiz-adv-x="449" 
d="M240 800l199 -245h-158v-703h-83v703h-158z" />
    <glyph glyph-name="arrowright" unicode="&#x2192;" horiz-adv-x="1026" 
d="M982 287l-252 -211v169h-696v83h696v171z" />
    <glyph glyph-name="arrowdown" unicode="&#x2193;" horiz-adv-x="449" 
d="M422 90l-212 -252l-211 252h169v696h83v-696h171z" />
    <glyph glyph-name="uni2196" unicode="&#x2196;" horiz-adv-x="874" 
d="M55 709h292l-116 -117l543 -542l-59 -58l-543 541l-117 -118v294z" />
    <glyph glyph-name="uni2197" unicode="&#x2197;" horiz-adv-x="773" 
d="M381 709h292v-294l-118 118l-542 -541l-59 58l543 542z" />
    <glyph glyph-name="uni2198" unicode="&#x2198;" horiz-adv-x="874" 
d="M774 0h-292l116 117l-543 542l59 58l542 -542l118 119v-294z" />
    <glyph glyph-name="uni2199" unicode="&#x2199;" horiz-adv-x="764" 
d="M337 0h-292v294l117 -119l543 542l59 -58l-543 -542z" />
    <glyph glyph-name="uni21A9" unicode="&#x21a9;" horiz-adv-x="833" 
d="M398 581v83h192c119 0 217 -91 217 -209c0 -125 -105 -209 -221 -209h-367v-144l-221 185l221 186v-144h362c75 0 144 45 144 126c0 80 -66 126 -147 126h-180z" />
    <glyph glyph-name="uni21B0" unicode="&#x21b0;" horiz-adv-x="775" 
d="M271 353l-221 185l221 186v-144h414v-580h-83v497h-331v-144z" />
    <glyph glyph-name="uni21B1" unicode="&#x21b1;" horiz-adv-x="720" 
d="M118 0h-83v580h464v144l221 -186l-221 -185v144h-381v-497z" />
    <glyph glyph-name="uni21B2" unicode="&#x21b2;" horiz-adv-x="760" 
d="M592 709h83v-580h-464v-144l-221 186l221 185v-144h381v497z" />
    <glyph glyph-name="uni21B3" unicode="&#x21b3;" horiz-adv-x="840" 
d="M549 356l221 -185l-221 -186v144h-464v580h83v-497h381v144z" />
    <glyph glyph-name="uni21B4" unicode="&#x21b4;" horiz-adv-x="814" 
d="M55 626v83h580v-504h144l-186 -221l-185 221h144v421h-497z" />
    <glyph glyph-name="uni21C6" unicode="&#x21c6;" horiz-adv-x="1106" 
d="M276 355l-221 185l221 186v-144h755v-83h-755v-144zM1051 170l-221 -185v144h-755v83h755v144z" />
    <glyph glyph-name="partialdiff" unicode="&#x2202;" horiz-adv-x="611" 
d="M247 638c-32 0 -88 -6 -140 -31l-32 74c55 32 125 43 180 43c120 0 307 -65 307 -376c0 -223 -95 -363 -275 -363c-122 0 -241 78 -241 236c0 143 113 231 246 231c80 0 141 -26 171 -57c-14 172 -97 243 -216 243zM306 369c-109 0 -164 -70 -164 -154
c0 -92 73 -143 150 -143c125 0 172 120 172 224c-35 48 -96 73 -158 73z" />
    <glyph glyph-name="Delta" unicode="&#x2206;" horiz-adv-x="662" 
d="M0 0l278 709h105l279 -709h-662zM329 597l-190 -507h383z" />
    <glyph glyph-name="product" unicode="&#x220f;" horiz-adv-x="687" 
d="M597 0h-95v622h-314v-622h-98v709h507v-709z" />
    <glyph glyph-name="summation" unicode="&#x2211;" horiz-adv-x="567" 
d="M45 0v86l273 271l-273 266v86h497v-90h-365l269 -262l-278 -267h374v-90h-497z" />
    <glyph glyph-name="minus" unicode="&#x2212;" horiz-adv-x="533" 
d="M478 248h-423v79h423v-79z" />
    <glyph glyph-name="uni2215" unicode="&#x2215;" horiz-adv-x="404" 
d="M404 648l-313 -648h-91l313 648h91z" />
    <glyph glyph-name="uni2219" unicode="&#x2219;" horiz-adv-x="279" 
d="M70 284c0 39 30 70 69 70s70 -31 70 -70s-31 -69 -70 -69s-69 30 -69 69z" />
    <glyph glyph-name="radical" unicode="&#x221a;" horiz-adv-x="665" 
d="M700 780h-119l-266 -780h-91l-189 529h108l127 -374l235 713h195v-88z" />
    <glyph glyph-name="infinity" unicode="&#x221e;" horiz-adv-x="801" 
d="M399 228c-61 -68 -114 -106 -180 -106c-101 0 -174 72 -174 168s73 169 174 169c66 0 127 -37 183 -107c59 70 114 107 180 107c101 0 174 -73 174 -169s-73 -168 -174 -168c-66 0 -127 35 -183 106zM221 379c-57 0 -93 -39 -93 -90s36 -89 93 -89c49 0 88 37 129 87
c-43 52 -78 92 -129 92zM580 200c57 0 93 38 93 89s-36 90 -93 90c-51 0 -85 -38 -129 -89c42 -51 79 -90 129 -90z" />
    <glyph glyph-name="integral" unicode="&#x222b;" horiz-adv-x="310" 
d="M109 -33v584c0 98 60 158 159 158h37v-86h-30c-44 0 -72 -26 -72 -79v-585c0 -98 -57 -159 -155 -159h-43v86h31c42 0 73 28 73 81z" />
    <glyph glyph-name="approxequal" unicode="&#x2248;" horiz-adv-x="569" 
d="M483 429l51 -45c-37 -53 -88 -83 -146 -83c-33 0 -65 10 -100 30l-47 26c-21 11 -42 17 -62 17c-33 0 -65 -15 -91 -45l-53 47c38 55 87 85 143 85c34 0 66 -11 103 -31l46 -25c23 -13 47 -20 70 -20c32 0 61 14 86 44zM483 235l51 -45c-37 -53 -88 -83 -146 -83
c-33 0 -65 10 -100 30l-47 26c-21 11 -42 17 -62 17c-33 0 -65 -15 -91 -45l-53 47c38 55 87 85 143 85c34 0 66 -11 103 -31l46 -25c23 -13 47 -20 70 -20c32 0 61 14 86 44z" />
    <glyph glyph-name="notequal" unicode="&#x2260;" horiz-adv-x="593" 
d="M528 151h-282l-74 -100h-96l74 100h-85v79h143l85 116h-228v77h285l73 99h96l-73 -99h82v-77h-139l-85 -116h224v-79z" />
    <glyph glyph-name="lessequal" unicode="&#x2264;" horiz-adv-x="542" 
d="M65 130h412v-79h-412v79zM65 304v85l412 146v-84l-307 -104l307 -104v-84z" />
    <glyph glyph-name="greaterequal" unicode="&#x2265;" horiz-adv-x="542" 
d="M65 130h412v-79h-412v79zM477 389v-85l-412 -145v84l307 104l-307 104v84z" />
    <glyph glyph-name="dotmath" unicode="&#x22c5;" horiz-adv-x="279" 
d="M70 284c0 39 30 70 69 70s70 -31 70 -70s-31 -69 -70 -69s-69 30 -69 69z" />
    <glyph glyph-name="uni24C5" unicode="&#x24c5;" horiz-adv-x="821" 
d="M123 355c0 -168 126 -297 286 -297s286 129 286 297s-126 296 -286 296s-286 -128 -286 -296zM45 355c0 203 162 369 364 369c203 0 367 -166 367 -369s-164 -370 -367 -370c-202 0 -364 167 -364 370zM363 367h70c45 0 72 25 72 62c0 39 -27 64 -72 64h-70v-126z
M446 301h-83v-144h-76v402h159c78 0 136 -58 136 -129c0 -72 -58 -129 -136 -129z" />
    <glyph glyph-name="filledbox" unicode="&#x25a0;" horiz-adv-x="921" 
d="M110 0v709h701v-709h-701z" />
    <glyph glyph-name="H22073" unicode="&#x25a1;" horiz-adv-x="921" 
d="M811 0h-701v709h701v-709zM192 633v-558h537v558h-537z" />
    <glyph glyph-name="triagup" unicode="&#x25b2;" horiz-adv-x="837" 
d="M420 724l417 -724h-837z" />
    <glyph glyph-name="uni25B3" unicode="&#x25b3;" horiz-adv-x="837" 
d="M420 724l417 -724h-837zM696 75l-277 486l-279 -486h556z" />
    <glyph glyph-name="lozenge" unicode="&#x25ca;" horiz-adv-x="556" 
d="M137 354l141 -242l140 242l-140 243zM35 354l202 355h82l202 -355l-202 -354h-82z" />
    <glyph glyph-name="circle" unicode="&#x25cb;" horiz-adv-x="831" 
d="M45 354c0 205 165 371 370 371s371 -166 371 -371s-166 -370 -371 -370s-370 165 -370 370zM129 354c0 -162 126 -291 286 -291s286 129 286 291s-126 291 -286 291s-286 -129 -286 -291z" />
    <glyph glyph-name="H18533" unicode="&#x25cf;" horiz-adv-x="831" 
d="M45 354c0 205 165 371 370 371s371 -166 371 -371s-166 -370 -371 -370s-370 165 -370 370z" />
    <glyph glyph-name="uni262E" unicode="&#x262e;" horiz-adv-x="821" 
d="M776 355c0 -203 -164 -370 -367 -370c-202 0 -364 167 -364 370s162 369 364 369c203 0 367 -166 367 -369zM695 355c0 153 -106 273 -246 293v-240l206 -207c25 45 40 97 40 154zM123 355c0 -56 14 -108 39 -152l205 205v240c-140 -20 -244 -140 -244 -293zM449 61
c60 8 113 35 155 75l-155 156v-231zM212 137c41 -41 95 -68 155 -76v231z" />
    <glyph glyph-name="uni2713" unicode="&#x2713;" horiz-adv-x="970" 
d="M945 670l-638 -687l-282 315l60 57l226 -247l574 621z" />
    <glyph glyph-name="uni2715" unicode="&#x2715;" horiz-adv-x="756" 
d="M672 -5l-294 300l-294 -300l-59 59l294 301l-293 300l60 59l292 -299l292 299l60 -59l-294 -300l295 -301z" />
    <glyph glyph-name="uni2780" unicode="&#x2780;" horiz-adv-x="821" 
d="M123 355c0 -168 126 -297 286 -297s286 129 286 297s-126 296 -286 296s-286 -128 -286 -296zM45 355c0 203 162 369 364 369c203 0 367 -166 367 -369s-164 -370 -367 -370c-202 0 -364 167 -364 370zM462 173h-77v245h-86v52c49 1 85 31 92 68h71v-365z" />
    <glyph glyph-name="uni2781" unicode="&#x2781;" horiz-adv-x="821" 
d="M123 355c0 -168 126 -297 286 -297s286 129 286 297s-126 296 -286 296s-286 -128 -286 -296zM45 355c0 203 162 369 364 369c203 0 367 -166 367 -369s-164 -370 -367 -370c-202 0 -364 167 -364 370zM350 402h-74c-2 10 -3 23 -3 31c0 63 50 117 132 117
s131 -54 131 -115c0 -47 -27 -83 -70 -110l-72 -45c-15 -10 -28 -23 -31 -37h175v-65h-268v13c0 59 26 109 85 145l60 37c28 17 43 39 43 63c0 26 -19 50 -54 50c-34 0 -57 -23 -57 -58c0 -4 1 -17 3 -26z" />
    <glyph glyph-name="uni2782" unicode="&#x2782;" horiz-adv-x="821" 
d="M45 355c0 203 162 369 364 369c203 0 367 -166 367 -369s-164 -370 -367 -370c-202 0 -364 167 -364 370zM123 355c0 -168 126 -297 286 -297s286 129 286 297s-126 296 -286 296s-286 -128 -286 -296zM374 337l-29 56l95 79h-171v65h271v-63l-100 -80
c57 -5 108 -41 108 -109c0 -66 -58 -121 -145 -121s-135 51 -147 103l67 27c6 -38 38 -64 79 -64s68 24 68 55c0 42 -35 56 -68 56c-10 0 -21 -2 -28 -4z" />
    <glyph glyph-name="uni2783" unicode="&#x2783;" horiz-adv-x="821" 
d="M123 355c0 -168 126 -297 286 -297s286 129 286 297s-126 296 -286 296s-286 -128 -286 -296zM45 355c0 203 162 369 364 369c203 0 367 -166 367 -369s-164 -370 -367 -370c-202 0 -364 167 -364 370zM235 250v73l177 220h85v-228h64v-65h-64v-72h-77v72h-185zM420 315
v139l-111 -139h111z" />
    <glyph glyph-name="uni2784" unicode="&#x2784;" horiz-adv-x="821" 
d="M123 355c0 -168 126 -297 286 -297s286 129 286 297s-126 296 -286 296s-286 -128 -286 -296zM45 355c0 203 162 369 364 369c203 0 367 -166 367 -369s-164 -370 -367 -370c-202 0 -364 167 -364 370zM257 255l66 30c9 -35 37 -57 73 -57c39 0 67 22 67 61
c0 41 -29 62 -67 62c-27 0 -48 -11 -64 -27l-64 24l49 187h204v-66h-154l-23 -86c18 20 46 28 73 28c74 0 124 -46 124 -119c0 -71 -52 -129 -145 -129c-72 0 -126 45 -139 92z" />
    <glyph glyph-name="uni2785" unicode="&#x2785;" horiz-adv-x="821" 
d="M123 355c0 -168 126 -297 286 -297s286 129 286 297s-126 296 -286 296s-286 -128 -286 -296zM45 355c0 203 162 369 364 369c203 0 367 -166 367 -369s-164 -370 -367 -370c-202 0 -364 167 -364 370zM528 527l-18 -57c-20 9 -41 13 -62 13c-64 0 -112 -36 -123 -105
c17 25 54 43 91 43c77 0 130 -46 130 -126c0 -77 -64 -129 -147 -129c-74 0 -151 52 -151 167c0 130 83 213 194 213c33 0 66 -7 86 -19zM331 294c0 -41 35 -63 69 -63s68 22 68 63s-34 63 -68 63s-69 -22 -69 -63z" />
    <glyph glyph-name="uni2786" unicode="&#x2786;" horiz-adv-x="821" 
d="M123 355c0 -168 126 -297 286 -297s286 129 286 297s-126 296 -286 296s-286 -128 -286 -296zM45 355c0 203 162 369 364 369c203 0 367 -166 367 -369s-164 -370 -367 -370c-202 0 -364 167 -364 370zM559 533v-69c-35 -24 -136 -107 -154 -296h-82
c18 198 136 299 136 299h-197v66h297z" />
    <glyph glyph-name="uni2787" unicode="&#x2787;" horiz-adv-x="821" 
d="M123 355c0 -168 126 -297 286 -297s286 129 286 297s-126 296 -286 296s-286 -128 -286 -296zM45 355c0 203 162 369 364 369c203 0 367 -166 367 -369s-164 -370 -367 -370c-202 0 -364 167 -364 370zM408 390c35 0 57 19 57 48c0 26 -21 45 -57 45s-57 -19 -57 -45
c0 -29 22 -48 57 -48zM408 230c44 0 67 20 67 50c0 29 -24 50 -67 50s-67 -21 -67 -50c0 -30 23 -50 67 -50zM408 166c-93 0 -145 47 -145 108c0 36 25 70 68 86c-36 15 -56 47 -56 80c0 62 56 105 133 105s133 -43 133 -105c0 -33 -20 -65 -56 -80c43 -16 68 -50 68 -86
c0 -61 -52 -108 -145 -108z" />
    <glyph glyph-name="uni2788" unicode="&#x2788;" horiz-adv-x="821" 
d="M123 355c0 -168 126 -297 286 -297s286 129 286 297s-126 296 -286 296s-286 -128 -286 -296zM45 355c0 203 162 369 364 369c203 0 367 -166 367 -369s-164 -370 -367 -370c-202 0 -364 167 -364 370zM281 183l18 59c20 -9 41 -13 62 -13c64 0 115 31 123 103
c-17 -25 -54 -43 -91 -43c-75 0 -130 48 -130 126c0 76 64 129 147 129c74 0 149 -52 149 -167c0 -138 -81 -213 -192 -213c-33 0 -66 7 -86 19zM476 415c0 41 -33 64 -69 64s-68 -23 -68 -64s32 -64 68 -64s69 23 69 64z" />
    <glyph glyph-name="uniE000" unicode="&#xe000;" horiz-adv-x="814" 
d="M221 -16l-186 221h144v504h580v-83h-497v-421h144z" />
    <glyph glyph-name="uni21B5" unicode="&#xe001;" horiz-adv-x="1080" 
d="M224 145l-179 210h131c1 204 166 369 369 369c66 0 128 -17 182 -47l-37 -74c-43 24 -92 38 -144 38c-160 0 -286 -127 -286 -286h143zM914 354c-1 -205 -166 -369 -369 -369c-66 0 -128 17 -182 47l37 74c43 -24 92 -38 144 -38c160 0 286 127 286 286h-138l179 210
l179 -210h-136z" />
    <glyph glyph-name="uniE002" unicode="&#xe002;" horiz-adv-x="949" 
d="M561 354l179 210l179 -210h-130c0 -204 -165 -369 -370 -369c-204 0 -369 165 -369 369c0 205 165 370 369 370c66 0 128 -17 182 -47l-37 -74c-43 24 -92 38 -144 38c-160 0 -286 -127 -286 -287s126 -288 286 -288s285 128 285 288h-144z" />
    <glyph glyph-name="uniFB00" unicode="&#xfb00;" horiz-adv-x="659" 
d="M598 639c-33 0 -76 -16 -76 -82v-76h116v-85h-116v-396h-97v396h-219v-396h-97v396h-89v85h89v81c0 107 71 165 158 165c32 0 52 -7 56 -10v-84c-5 2 -17 6 -41 6c-33 0 -76 -16 -76 -82v-76h219v81c0 107 71 165 158 165c32 0 52 -7 56 -10v-84c-5 2 -17 6 -41 6z" />
    <glyph glyph-name="fi" unicode="&#xfb01;" horiz-adv-x="604" 
d="M267 727c32 0 52 -7 56 -10v-84c-5 2 -17 6 -41 6c-33 0 -76 -15 -76 -81v-77h318v-481h-93v396h-225v-396h-97v396h-89v85h89v81c0 107 71 165 158 165zM410 665c0 38 30 68 67 68c38 0 68 -30 68 -68c0 -37 -30 -67 -68 -67c-37 0 -67 30 -67 67z" />
    <glyph glyph-name="fl" unicode="&#xfb02;" horiz-adv-x="602" 
d="M282 639c-33 0 -76 -16 -76 -82v-76h222v243h94v-724h-94v396h-222v-396h-97v396h-89v85h89v81c0 107 71 165 158 165c32 0 52 -7 56 -10v-84c-5 2 -17 6 -41 6z" />
    <glyph glyph-name="uniFB03" unicode="&#xfb03;" horiz-adv-x="920" 
d="M109 481v81c0 107 71 165 158 165c32 0 52 -7 56 -10v-84c-5 2 -17 6 -41 6c-33 0 -76 -16 -76 -82v-76h219v81c0 107 71 165 158 165c32 0 52 -7 56 -10v-84c-5 2 -17 6 -41 6c-33 0 -76 -16 -76 -82v-76h318v-481h-93v396h-225v-396h-97v396h-219v-396h-97v396h-89v85
h89zM726 665c0 38 30 68 67 68c38 0 68 -30 68 -68c0 -37 -30 -67 -68 -67c-37 0 -67 30 -67 67z" />
    <glyph glyph-name="uniFB04" unicode="&#xfb04;" horiz-adv-x="920" 
d="M109 481v81c0 107 71 165 158 165c32 0 52 -7 56 -10v-84c-5 2 -17 6 -41 6c-33 0 -76 -16 -76 -82v-76h219v81c0 107 71 165 158 165c32 0 52 -7 56 -10v-84c-5 2 -17 6 -41 6c-33 0 -76 -16 -76 -82v-76h225v243h93v-724h-93v396h-225v-396h-97v396h-219v-396h-97v396
h-89v85h89z" />
    <glyph glyph-name="uniFEFF" unicode="&#xfeff;" horiz-adv-x="0" 
 />
    <glyph glyph-name="zero.numr" horiz-adv-x="426" 
d="M138 465c0 -54 9 -123 75 -123s75 69 75 123s-9 124 -75 124s-75 -69 -75 -124zM60 465c0 48 9 96 35 132c22 31 57 58 118 58s96 -27 118 -58c26 -36 35 -84 35 -132s-9 -95 -35 -131c-22 -31 -57 -58 -118 -58s-96 27 -118 58c-26 36 -35 83 -35 131z" />
    <glyph glyph-name="one.numr" horiz-adv-x="303" 
d="M213 283h-77v245h-86v52c49 1 85 31 92 68h71v-365z" />
    <glyph glyph-name="two.numr" horiz-adv-x="389" 
d="M141 507h-74c-2 10 -3 23 -3 31c0 63 50 117 132 117s131 -54 131 -115c0 -47 -27 -83 -70 -110l-72 -45c-15 -10 -28 -23 -31 -37h175v-65h-268v13c0 59 26 109 85 145l60 37c28 17 43 39 43 63c0 26 -19 50 -54 50c-34 0 -57 -23 -57 -58c0 -4 1 -17 3 -26z" />
    <glyph glyph-name="three.numr" horiz-adv-x="412" 
d="M178 448l-29 56l95 79h-171v65h271v-63l-100 -80c57 -5 108 -41 108 -109c0 -66 -58 -121 -145 -121s-135 51 -147 103l67 27c6 -38 38 -64 79 -64s68 24 68 55c0 42 -35 56 -68 56c-10 0 -21 -2 -28 -4z" />
    <glyph glyph-name="four.numr" horiz-adv-x="446" 
d="M60 355v73l177 220h85v-228h64v-65h-64v-72h-77v72h-185zM245 420v139l-111 -139h111z" />
    <glyph glyph-name="five.numr" horiz-adv-x="379" 
d="M60 368l66 30c9 -35 37 -57 73 -57c39 0 67 22 67 61c0 41 -29 62 -67 62c-27 0 -48 -11 -64 -27l-64 24l49 187h204v-66h-154l-23 -86c18 20 46 28 73 28c74 0 124 -46 124 -119c0 -71 -52 -129 -145 -129c-72 0 -126 45 -139 92z" />
    <glyph glyph-name="six.numr" horiz-adv-x="418" 
d="M340 637l-18 -57c-20 9 -41 13 -62 13c-64 0 -112 -36 -123 -105c17 25 54 43 91 43c77 0 130 -46 130 -126c0 -77 -64 -129 -147 -129c-74 0 -151 52 -151 167c0 130 83 213 194 213c33 0 66 -7 86 -19zM143 404c0 -41 35 -63 69 -63s68 22 68 63s-34 63 -68 63
s-69 -22 -69 -63z" />
    <glyph glyph-name="seven.numr" horiz-adv-x="417" 
d="M357 648v-69c-35 -24 -136 -107 -154 -296h-82c18 198 136 299 136 299h-197v66h297z" />
    <glyph glyph-name="eight.numr" horiz-adv-x="410" 
d="M205 500c35 0 57 19 57 48c0 26 -21 45 -57 45s-57 -19 -57 -45c0 -29 22 -48 57 -48zM205 340c44 0 67 20 67 50c0 29 -24 50 -67 50s-67 -21 -67 -50c0 -30 23 -50 67 -50zM205 276c-93 0 -145 47 -145 108c0 36 25 70 68 86c-36 15 -56 47 -56 80c0 62 56 105 133 105
s133 -43 133 -105c0 -33 -20 -65 -56 -80c43 -16 68 -50 68 -86c0 -61 -52 -108 -145 -108z" />
    <glyph glyph-name="nine.numr" horiz-adv-x="416" 
d="M78 293l18 59c20 -9 41 -13 62 -13c64 0 115 31 123 103c-17 -25 -54 -43 -91 -43c-75 0 -130 48 -130 126c0 76 64 129 147 129c74 0 149 -52 149 -167c0 -138 -81 -213 -192 -213c-33 0 -66 7 -86 19zM273 525c0 41 -33 64 -69 64s-68 -23 -68 -64s32 -64 68 -64
s69 23 69 64z" />
    <glyph glyph-name="zero.dnom" horiz-adv-x="426" 
d="M138 182c0 -54 9 -123 75 -123s75 69 75 123s-9 124 -75 124s-75 -69 -75 -124zM60 182c0 48 9 96 35 132c22 31 57 58 118 58s96 -27 118 -58c26 -36 35 -84 35 -132s-9 -95 -35 -131c-22 -31 -57 -58 -118 -58s-96 27 -118 58c-26 36 -35 83 -35 131z" />
    <glyph glyph-name="one.dnom" horiz-adv-x="303" 
d="M213 0h-77v245h-86v52c49 1 85 31 92 68h71v-365z" />
    <glyph glyph-name="two.dnom" horiz-adv-x="389" 
d="M141 224h-74c-2 10 -3 23 -3 31c0 63 50 117 132 117s131 -54 131 -115c0 -47 -27 -83 -70 -110l-72 -45c-15 -10 -28 -23 -31 -37h175v-65h-268v13c0 59 26 109 85 145l60 37c28 17 43 39 43 63c0 26 -19 50 -54 50c-34 0 -57 -23 -57 -58c0 -4 1 -17 3 -26z" />
    <glyph glyph-name="three.dnom" horiz-adv-x="412" 
d="M178 166l-29 56l95 79h-171v65h271v-63l-100 -80c57 -5 108 -41 108 -109c0 -66 -58 -121 -145 -121s-135 51 -147 103l67 27c6 -38 38 -64 79 -64s68 24 68 55c0 42 -35 56 -68 56c-10 0 -21 -2 -28 -4z" />
    <glyph glyph-name="four.dnom" horiz-adv-x="446" 
d="M60 72v73l177 220h85v-228h64v-65h-64v-72h-77v72h-185zM245 137v139l-111 -139h111z" />
    <glyph glyph-name="five.dnom" horiz-adv-x="404" 
d="M60 85l66 30c9 -35 37 -57 73 -57c39 0 67 22 67 61c0 41 -29 62 -67 62c-27 0 -48 -11 -64 -27l-64 24l49 187h204v-66h-154l-23 -86c18 20 46 28 73 28c74 0 124 -46 124 -119c0 -71 -52 -129 -145 -129c-72 0 -126 45 -139 92z" />
    <glyph glyph-name="six.dnom" horiz-adv-x="418" 
d="M340 354l-18 -57c-20 9 -41 13 -62 13c-64 0 -112 -36 -123 -105c17 25 54 43 91 43c77 0 130 -46 130 -126c0 -77 -64 -129 -147 -129c-74 0 -151 52 -151 167c0 130 83 213 194 213c33 0 66 -7 86 -19zM143 121c0 -41 35 -63 69 -63s68 22 68 63s-34 63 -68 63
s-69 -22 -69 -63z" />
    <glyph glyph-name="seven.dnom" horiz-adv-x="417" 
d="M357 365v-69c-35 -24 -136 -107 -154 -296h-82c18 198 136 299 136 299h-197v66h297z" />
    <glyph glyph-name="eight.dnom" horiz-adv-x="410" 
d="M205 217c35 0 57 19 57 48c0 26 -21 45 -57 45s-57 -19 -57 -45c0 -29 22 -48 57 -48zM205 57c44 0 67 20 67 50c0 29 -24 50 -67 50s-67 -21 -67 -50c0 -30 23 -50 67 -50zM205 -7c-93 0 -145 47 -145 108c0 36 25 70 68 86c-36 15 -56 47 -56 80c0 62 56 105 133 105
s133 -43 133 -105c0 -33 -20 -65 -56 -80c43 -16 68 -50 68 -86c0 -61 -52 -108 -145 -108z" />
    <glyph glyph-name="nine.dnom" horiz-adv-x="416" 
d="M78 12l18 59c20 -9 41 -13 62 -13c64 0 115 31 123 103c-17 -25 -54 -43 -91 -43c-75 0 -130 48 -130 126c0 76 64 129 147 129c74 0 149 -52 149 -167c0 -138 -81 -213 -192 -213c-33 0 -66 7 -86 19zM273 244c0 41 -33 64 -69 64s-68 -23 -68 -64s32 -64 68 -64
s69 23 69 64z" />
    <glyph glyph-name="space.frac" horiz-adv-x="50" 
 />
    <glyph glyph-name="a.ordn" horiz-adv-x="428" 
d="M66 401c0 60 46 95 103 103l88 12c20 3 26 13 26 25c0 30 -20 56 -68 56c-44 0 -69 -28 -73 -65l-69 16c6 61 61 111 141 111c104 0 143 -59 143 -126v-169c0 -22 3 -51 4 -55h-71c-2 8 -4 23 -4 44c-15 -25 -49 -54 -105 -54c-71 0 -115 48 -115 102zM193 359
c49 0 90 23 90 93v15l-95 -15c-26 -4 -47 -18 -47 -47c0 -24 19 -46 52 -46z" />
    <glyph glyph-name="b.ordn" horiz-adv-x="494" 
d="M161 309h-73v507h74v-212c15 28 55 54 109 54c102 0 156 -78 156 -178c0 -101 -59 -180 -159 -180c-49 0 -86 22 -107 56v-47zM351 480c0 70 -38 111 -94 111c-55 0 -96 -41 -96 -111s41 -113 96 -113c56 0 94 43 94 113z" />
    <glyph glyph-name="c.ordn" horiz-adv-x="462" 
d="M239 590c-51 0 -97 -40 -97 -111c0 -72 46 -111 98 -111c57 0 81 38 89 65l67 -26c-17 -51 -67 -108 -156 -108c-99 0 -173 77 -173 180c0 104 74 180 172 180c91 0 140 -57 154 -111l-67 -26c-9 32 -33 68 -87 68z" />
    <glyph glyph-name="d.ordn" horiz-adv-x="495" 
d="M143 480c0 -67 36 -114 94 -114c56 0 93 48 93 114c0 68 -37 110 -93 110s-94 -44 -94 -110zM403 816v-445c0 -27 2 -55 3 -62h-72c-1 8 -4 26 -4 46c-15 -28 -51 -55 -101 -55c-99 0 -162 78 -162 180c0 96 65 177 161 177c60 0 91 -27 101 -52v211h74z" />
    <glyph glyph-name="e.ordn" horiz-adv-x="461" 
d="M144 515h174c-1 43 -31 80 -87 80c-53 0 -84 -41 -87 -80zM327 427l64 -21c-18 -60 -72 -107 -153 -107c-91 0 -172 67 -172 181c0 108 80 179 164 179c104 0 165 -71 165 -177c0 -13 -2 -23 -2 -24h-251c1 -55 44 -94 96 -94s77 27 89 63z" />
    <glyph glyph-name="f.ordn" horiz-adv-x="350" 
d="M283 582h-80v-274h-76v274h-61v67h61v50c0 77 49 120 116 120c21 0 37 -4 41 -7v-65c-6 2 -13 4 -29 4c-22 0 -52 -10 -52 -55v-47h80v-67z" />
    <glyph glyph-name="g.ordn" horiz-adv-x="465" 
d="M67 291l71 17c5 -44 39 -77 88 -77c67 0 99 34 99 105v40c-15 -28 -50 -51 -101 -51c-90 0 -156 69 -156 165c0 91 63 165 156 165c53 0 87 -21 102 -51v44h73v-310c0 -88 -45 -172 -172 -172c-88 0 -151 55 -160 125zM236 388c54 0 91 40 91 102c0 60 -38 100 -91 100
c-54 0 -92 -40 -92 -100c0 -63 37 -102 92 -102z" />
    <glyph glyph-name="h.ordn" horiz-adv-x="473" 
d="M163 508v-199h-75v507h75v-203c24 32 62 45 99 45c83 0 123 -59 123 -134v-215h-75v202c0 44 -19 79 -74 79c-46 0 -72 -36 -73 -82z" />
    <glyph glyph-name="i.ordn" horiz-adv-x="278" 
d="M176 309h-74v339h74v-339zM89 771c0 28 22 51 50 51s50 -23 50 -51s-22 -50 -50 -50s-50 22 -50 50z" />
    <glyph glyph-name="j.ordn" horiz-adv-x="297" 
d="M137 278v370h75v-375c0 -63 -37 -107 -98 -107c-25 0 -41 4 -44 5v62c6 -1 13 -2 23 -2c33 0 44 18 44 47zM124 772c0 28 22 51 50 51s50 -23 50 -51s-22 -50 -50 -50s-50 22 -50 50z" />
    <glyph glyph-name="k.ordn" horiz-adv-x="430" 
d="M400 648l-141 -143l144 -196h-93l-104 143l-44 -45v-98h-74v507h74v-310l137 142h101z" />
    <glyph glyph-name="l.ordn" horiz-adv-x="251" 
d="M163 309h-75v507h75v-507z" />
    <glyph glyph-name="m.ordn" horiz-adv-x="681" 
d="M162 309h-74v339h71v-44c21 36 63 54 102 54c44 0 84 -20 101 -61c28 46 68 61 112 61c60 0 119 -40 119 -129v-220h-73v209c0 42 -21 73 -68 73c-44 0 -74 -34 -74 -79v-203h-74v209c0 42 -20 73 -68 73c-45 0 -74 -34 -74 -80v-202z" />
    <glyph glyph-name="n.ordn" horiz-adv-x="473" 
d="M163 505v-196h-75v339h73v-46c23 39 63 56 102 56c82 0 122 -59 122 -134v-215h-75v202c0 44 -19 79 -74 79c-47 0 -73 -38 -73 -85z" />
    <glyph glyph-name="o.ordn" horiz-adv-x="484" 
d="M242 366c52 0 99 39 99 113s-47 112 -99 112c-53 0 -100 -38 -100 -112s47 -113 100 -113zM242 659c101 0 175 -76 175 -180s-74 -180 -175 -180c-102 0 -175 76 -175 180s73 180 175 180z" />
    <glyph glyph-name="p.ordn" horiz-adv-x="494" 
d="M162 176h-74v472h73v-49c16 31 56 57 110 57c100 0 156 -78 156 -177c0 -101 -61 -179 -159 -179c-50 0 -88 23 -106 50v-174zM352 479c0 65 -38 111 -95 111c-56 0 -96 -46 -96 -111c0 -66 40 -112 96 -112s95 45 95 112z" />
    <glyph glyph-name="q.ordn" horiz-adv-x="477" 
d="M405 176h-74v176c-17 -31 -54 -52 -102 -52c-97 0 -162 80 -162 180c0 96 61 177 160 177c59 0 93 -30 106 -57v48h72v-472zM143 480c0 -67 38 -114 94 -114s95 47 95 114c0 66 -39 110 -95 110s-94 -44 -94 -110z" />
    <glyph glyph-name="r.ordn" horiz-adv-x="288" 
d="M266 651v-78c-10 2 -20 3 -29 3c-52 0 -90 -28 -90 -102v-165h-75v339h73v-56c22 49 66 61 98 61c8 0 16 -1 23 -2z" />
    <glyph glyph-name="s.ordn" horiz-adv-x="401" 
d="M67 400l67 20c3 -33 28 -61 72 -61c35 0 54 20 54 42c0 19 -14 34 -41 40l-54 12c-56 12 -88 51 -88 97c0 59 54 109 123 109c94 0 124 -61 130 -94l-64 -20c-3 19 -18 53 -66 53c-31 0 -52 -20 -52 -41c0 -20 14 -33 36 -38l53 -11c63 -14 96 -52 96 -102
c0 -51 -41 -107 -127 -107c-96 0 -134 62 -139 101z" />
    <glyph glyph-name="t.ordn" horiz-adv-x="324" 
d="M193 753v-105h72v-67h-72v-165c0 -30 13 -44 45 -44c8 0 18 1 27 3v-63c-5 -2 -25 -7 -48 -7c-60 0 -99 37 -99 99v177h-63v67h18c36 0 52 23 52 53v52h68z" />
    <glyph glyph-name="u.ordn" horiz-adv-x="440" 
d="M293 349c-18 -34 -60 -50 -98 -50c-80 0 -128 60 -128 135v214h75v-201c0 -44 21 -81 72 -81c49 0 75 33 75 80v202h75v-277c0 -28 3 -57 4 -62h-72c-2 8 -3 27 -3 40z" />
    <glyph glyph-name="v.ordn" horiz-adv-x="404" 
d="M374 648l-134 -339h-75l-138 339h83l93 -250l91 250h80z" />
    <glyph glyph-name="w.ordn" horiz-adv-x="603" 
d="M263 648h77l84 -242l70 242h77l-109 -339h-76l-86 249l-85 -249h-78l-110 339h80l72 -242z" />
    <glyph glyph-name="x.ordn" horiz-adv-x="413" 
d="M37 309l124 172l-122 167h90l78 -113l77 113h87l-120 -166c24 -34 99 -139 124 -173h-89l-82 118c-4 -7 -76 -112 -81 -118h-86z" />
    <glyph glyph-name="y.ordn" horiz-adv-x="418" 
d="M171 170h-81l83 178l-146 300h86l100 -222l96 222h79z" />
    <glyph glyph-name="z.ordn" horiz-adv-x="409" 
d="M342 309h-275v66l178 207h-174v66h268v-64l-179 -209h182v-66z" />
    <glyph glyph-name="space.tf" 
 />
    <glyph glyph-name="numbersign.tf" 
d="M491 648l-36 -167h97v-81h-114l-32 -150h97v-81h-115l-36 -169h-88l36 169h-116l-36 -169h-88l36 169h-88v81h106l32 150h-89v81h106l36 167h88l-36 -167h116l36 167h88zM234 400l-32 -150h116l32 150h-116z" />
    <glyph glyph-name="dollar.tf" 
d="M327 -104h-76v100c-135 14 -201 107 -211 192l92 30c5 -63 42 -123 119 -136v202l-24 5c-99 21 -161 82 -161 177c0 92 76 171 185 184v102h76v-103c119 -15 165 -95 181 -158l-87 -32c-6 37 -35 87 -94 104v-199l14 -3c108 -21 173 -93 173 -180s-64 -170 -187 -185
v-100zM419 176c0 41 -29 78 -92 93v-187c63 11 92 49 92 94zM162 470c0 -41 23 -76 89 -89v185c-56 -11 -89 -49 -89 -96z" />
    <glyph glyph-name="percent.tf" 
d="M526 540v-92l-482 -327v90zM94 520c0 -36 27 -62 60 -62c35 0 61 26 61 62c0 35 -26 60 -61 60c-33 0 -60 -25 -60 -60zM18 520c0 74 63 133 136 133s137 -59 137 -133c0 -76 -64 -135 -137 -135s-136 59 -136 135zM345 127c0 -36 27 -62 60 -62c35 0 61 26 61 62
c0 35 -26 60 -61 60c-33 0 -60 -25 -60 -60zM269 127c0 74 63 133 136 133s137 -59 137 -133c0 -76 -64 -135 -137 -135s-136 59 -136 135z" />
    <glyph glyph-name="plus.tf" 
d="M52 327h187v195h82v-195h188v-79h-188v-197h-82v197h-187v79z" />
    <glyph glyph-name="comma.tf" 
d="M191 74c0 41 36 77 84 77c50 0 94 -37 94 -110c0 -151 -99 -215 -171 -224v60c57 13 95 69 96 124c-4 -2 -13 -6 -25 -6c-43 0 -78 29 -78 79z" />
    <glyph glyph-name="period.tf" 
d="M200 74c0 44 35 80 80 80s80 -36 80 -80c0 -45 -35 -80 -80 -80s-80 35 -80 80z" />
    <glyph glyph-name="zero.tf" 
d="M131 324c0 -100 11 -252 149 -252s149 152 149 252s-11 252 -149 252s-149 -152 -149 -252zM34 324c0 89 11 175 52 238c41 62 109 101 194 101s153 -39 194 -101c41 -63 52 -149 52 -238s-11 -175 -52 -238c-41 -62 -109 -101 -194 -101s-153 39 -194 101
c-41 63 -52 149 -52 238z" />
    <glyph glyph-name="one.tf" 
d="M105 88h163v369h-157v69c90 2 152 52 167 122h86v-560h156v-88h-415v88z" />
    <glyph glyph-name="two.tf" 
d="M159 415l-98 12c-1 9 -1 18 -1 26c0 111 82 210 224 210c139 0 219 -91 219 -199c0 -85 -48 -153 -122 -200l-128 -82c-37 -24 -70 -51 -79 -91h333v-91h-454c2 106 44 187 154 258l108 70c61 39 89 85 89 135c0 59 -40 114 -122 114c-85 0 -125 -59 -125 -133
c0 -9 1 -19 2 -29z" />
    <glyph glyph-name="three.tf" 
d="M218 301l-48 81l191 176h-310v90h440v-88l-185 -171c95 0 200 -64 200 -197c0 -109 -84 -208 -235 -208c-150 0 -235 98 -241 204l96 22c4 -86 66 -140 144 -140c89 0 137 55 137 120c0 85 -68 121 -132 121c-20 0 -40 -4 -57 -10z" />
    <glyph glyph-name="four.tf" 
d="M37 146v113l278 389h135v-411h101v-91h-101v-146h-95v146h-318zM355 237v317l-228 -317h228z" />
    <glyph glyph-name="five.tf" 
d="M40 176l94 28c6 -80 65 -134 146 -134c77 0 139 51 139 131c0 89 -65 134 -140 134c-46 0 -90 -18 -118 -47c-34 13 -63 26 -96 38l84 322h342v-90h-277l-48 -186c29 32 81 48 132 48c127 0 220 -81 220 -215c0 -122 -94 -221 -238 -221c-138 0 -231 90 -240 192z" />
    <glyph glyph-name="six.tf" 
d="M512 627l-30 -80c-24 14 -67 28 -116 28c-135 0 -220 -98 -228 -231c27 43 85 83 171 83c128 0 223 -83 223 -221c0 -136 -114 -221 -241 -221c-124 0 -253 86 -253 300c0 241 145 378 334 378c59 0 110 -15 140 -36zM152 206c0 -85 69 -136 140 -136
c76 0 141 50 141 136c0 87 -66 137 -141 137s-140 -50 -140 -137z" />
    <glyph glyph-name="seven.tf" 
d="M526 648v-94c-60 -48 -253 -211 -284 -554h-101c29 377 277 558 277 558h-385v90h493z" />
    <glyph glyph-name="eight.tf" 
d="M280 372c69 1 120 43 120 106c0 58 -47 104 -120 104s-120 -46 -120 -104c0 -63 51 -105 120 -106zM280 70c87 0 136 48 136 109c0 62 -50 111 -136 111s-136 -49 -136 -111c0 -61 49 -109 136 -109zM280 -15c-149 0 -235 82 -235 186c0 79 54 137 123 160
c-59 22 -106 80 -106 152c0 106 94 180 218 180s218 -74 218 -180c0 -70 -46 -130 -106 -152c69 -22 123 -81 123 -160c0 -104 -86 -186 -235 -186z" />
    <glyph glyph-name="nine.tf" 
d="M44 23l32 81c28 -17 76 -31 118 -31c157 0 221 102 225 229c-23 -42 -80 -82 -168 -82c-112 0 -224 76 -224 219c0 134 112 224 239 224s252 -91 252 -298c0 -238 -106 -380 -324 -380c-50 0 -118 16 -150 38zM406 441c0 84 -69 136 -140 136c-72 0 -140 -51 -140 -136
c0 -88 66 -137 140 -137c72 0 140 51 140 137z" />
    <glyph glyph-name="colon.tf" 
d="M203 412c0 43 33 77 76 77s77 -34 77 -77c0 -42 -34 -76 -77 -76s-76 34 -76 76zM203 65c0 43 33 77 76 77s77 -34 77 -77c0 -42 -34 -76 -77 -76s-76 34 -76 76z" />
    <glyph glyph-name="semicolon.tf" 
d="M204 412c0 43 33 77 76 77s77 -34 77 -77c0 -42 -34 -76 -77 -76s-76 34 -76 76zM202 70c0 38 33 71 78 71s85 -34 85 -101c0 -140 -91 -198 -156 -207v56c51 11 86 63 88 114c-4 -2 -12 -5 -24 -5c-39 0 -71 26 -71 72z" />
    <glyph glyph-name="less.tf" 
d="M74 244v85l412 206v-95l-310 -153l310 -153v-95z" />
    <glyph glyph-name="equal.tf" 
d="M512 346h-463v77h463v-77zM512 151h-463v79h463v-79z" />
    <glyph glyph-name="greater.tf" 
d="M486 329v-85l-412 -205v95l312 153l-312 153v95z" />
    <glyph glyph-name="cent.tf" 
d="M328 0h-76v94c-112 20 -189 115 -189 234c0 122 79 213 189 233v88h76v-86c102 -11 155 -78 173 -140l-81 -33c-10 36 -37 79 -92 91v-307c61 12 88 58 97 89l80 -33c-20 -59 -78 -128 -177 -138v-92zM156 328c0 -80 41 -132 96 -150v299c-54 -18 -96 -69 -96 -149z" />
    <glyph glyph-name="sterling.tf" 
d="M60 359h70c-15 33 -30 71 -30 118c0 107 83 186 195 186c154 0 199 -98 203 -178l-98 -17c-1 74 -42 109 -103 109c-53 0 -99 -35 -99 -100c0 -40 15 -78 33 -118h184v-86h-158c1 -9 2 -18 2 -27c0 -70 -35 -128 -95 -159h171c68 0 96 51 96 106l94 -14
c0 -104 -62 -179 -166 -179h-305v95c68 28 110 84 110 140c0 13 -1 26 -4 38h-100v86z" />
    <glyph glyph-name="currency.tf" 
d="M71 239c0 45 14 87 37 121l-75 77l60 59l75 -78c34 22 74 35 116 35c40 0 78 -11 111 -31l72 74l60 -59l-70 -73c25 -35 41 -78 41 -125c0 -46 -15 -90 -40 -123l69 -71l-59 -59l-70 72c-33 -21 -73 -33 -114 -33c-44 0 -85 14 -119 37l-73 -76l-59 59l73 76
c-22 34 -35 74 -35 118zM154 239c0 -78 58 -132 130 -132s128 54 128 132c0 77 -56 131 -128 131s-130 -54 -130 -131z" />
    <glyph glyph-name="yen.tf" 
d="M502 155h-168v-155h-97v155h-169v72h169v80h-169v71h117l-171 270h114l157 -261l149 261h112l-163 -270h119v-71h-168v-80h168v-72z" />
    <glyph glyph-name="section.tf" horiz-adv-x="558" 
d="M474 244c0 -60 -46 -108 -83 -123c54 -35 87 -89 87 -144c0 -110 -95 -181 -203 -181c-126 0 -192 75 -194 183l88 18c0 -72 35 -123 108 -123c62 0 105 33 105 93c0 37 -23 68 -58 86l-103 54c-73 37 -137 80 -137 169c0 61 47 109 84 122c-56 35 -88 89 -88 145
c0 110 95 181 202 181c127 0 195 -82 195 -183l-89 -18c0 73 -35 122 -108 122c-62 0 -105 -37 -105 -93c0 -36 20 -66 59 -85l102 -54c73 -38 138 -81 138 -169zM320 316l-99 54c-23 -10 -47 -43 -47 -79c0 -37 18 -64 63 -87l99 -54c21 10 47 42 47 79s-18 64 -63 87z" />
    <glyph glyph-name="logicalnot.tf" 
d="M491 149h-84v195h-379v82h463v-277z" />
    <glyph glyph-name="plusminus.tf" 
d="M62 386h177v136h82v-136h178v-77h-178v-134h-82v134h-177v77zM62 130h437v-79h-437v79z" />
    <glyph glyph-name="multiply.tf" 
d="M449 55l-170 175l-168 -174l-56 56l169 176l-168 174l57 57l167 -174l167 174l57 -56l-169 -175l170 -176z" />
    <glyph glyph-name="divide.tf" 
d="M214 465c0 35 30 64 65 64s64 -29 64 -64s-29 -65 -64 -65s-65 30 -65 65zM51 246v83h457v-83h-457zM214 110c0 35 30 64 65 64s64 -29 64 -64s-29 -65 -64 -65s-65 30 -65 65z" />
    <glyph glyph-name="florin.tf" 
d="M179 20l75 378h-110v83h127l23 113c20 102 92 145 165 145c38 0 55 -4 74 -10v-83c-14 4 -32 7 -53 7c-35 0 -79 -9 -96 -92l-16 -80h129v-83h-146l-82 -411c-20 -102 -92 -145 -165 -145c-41 0 -58 4 -77 10v83c14 -4 32 -7 56 -7c35 0 80 10 96 92z" />
    <glyph glyph-name="uni2007.tf" 
 />
    <glyph glyph-name="uni2008.tf" 
 />
    <glyph glyph-name="perthousand.tf" 
d="M528 632v-92l-482 -376v90zM82 536c0 -32 24 -55 55 -55s53 23 53 55s-22 55 -53 55s-55 -23 -55 -55zM17 536c0 66 55 118 120 118c64 0 120 -52 120 -118s-56 -118 -120 -118c-65 0 -120 52 -120 118zM132 107c0 66 55 118 120 118c33 0 64 -15 85 -38
c21 23 51 38 86 38c64 0 120 -52 120 -118s-56 -118 -120 -118c-35 0 -65 14 -86 38c-21 -24 -52 -38 -85 -38c-65 0 -120 52 -120 118zM252 162c-31 0 -55 -23 -55 -55s24 -55 55 -55s53 23 53 55s-22 55 -53 55zM423 162c-31 0 -55 -23 -55 -55s24 -55 55 -55s53 23 53 55
s-22 55 -53 55z" />
    <glyph glyph-name="Euro.tf" 
d="M115 325c0 14 1 35 2 40h-74v78h89c47 147 181 220 310 220c54 0 78 -7 108 -17l-23 -82c-14 4 -41 12 -85 12c-90 0 -171 -43 -208 -133h257l-24 -78h-252c-2 -11 -3 -25 -3 -40c0 -18 1 -34 3 -43h235l-24 -80h-190c38 -87 118 -128 206 -128c44 0 72 8 85 12l23 -82
c-30 -10 -54 -17 -108 -17c-127 0 -260 71 -308 215h-91v80h74c-1 6 -2 28 -2 43z" />
    <glyph glyph-name="minus.tf" 
d="M491 248h-423v79h423v-79z" />
    <glyph glyph-name="approxequal.tf" 
d="M478 429l51 -45c-37 -53 -88 -83 -146 -83c-33 0 -65 10 -100 30l-47 26c-21 11 -42 17 -62 17c-33 0 -65 -15 -91 -45l-53 47c38 55 87 85 143 85c34 0 66 -11 103 -31l46 -25c23 -13 47 -20 70 -20c32 0 61 14 86 44zM478 235l51 -45c-37 -53 -88 -83 -146 -83
c-33 0 -65 10 -100 30l-47 26c-21 11 -42 17 -62 17c-33 0 -65 -15 -91 -45l-53 47c38 55 87 85 143 85c34 0 66 -11 103 -31l46 -25c23 -13 47 -20 70 -20c32 0 61 14 86 44z" />
    <glyph glyph-name="notequal.tf" 
d="M511 151h-272l-74 -100h-96l74 100h-95v79h153l85 116h-238v77h295l73 99h96l-73 -99h72v-77h-129l-85 -116h214v-79z" />
    <glyph glyph-name="lessequal.tf" 
d="M74 130h412v-79h-412v79zM74 304v85l412 146v-84l-307 -104l307 -104v-84z" />
    <glyph glyph-name="greaterequal.tf" 
d="M74 130h412v-79h-412v79zM486 389v-85l-412 -145v84l307 104l-307 104v84z" />
    <glyph glyph-name="parenleft.case" horiz-adv-x="297" 
d="M55 352c0 196 85 340 187 442l55 -49c-101 -111 -161 -229 -161 -393s60 -282 161 -393l-55 -49c-102 102 -187 246 -187 442z" />
    <glyph glyph-name="parenright.case" horiz-adv-x="297" 
d="M242 352c0 -196 -85 -340 -187 -442l-55 49c101 111 161 229 161 393s-60 282 -161 393l55 49c102 -102 187 -246 187 -442z" />
    <glyph glyph-name="hyphen.case" horiz-adv-x="361" 
d="M316 296h-271v82h271v-82z" />
    <glyph glyph-name="bracketleft.case" horiz-adv-x="288" 
d="M283 -90h-193v890h193v-76h-111v-739h111v-75z" />
    <glyph glyph-name="bracketright.case" horiz-adv-x="288" 
d="M198 -90h-193v75h111v739h-111v76h193v-890z" />
    <glyph glyph-name="braceleft.case" horiz-adv-x="353" 
d="M45 311v86c58 0 110 27 110 101v116c0 124 63 186 180 186h13v-75h-13c-74 0 -98 -32 -98 -105v-143c0 -67 -40 -111 -104 -123c64 -12 104 -56 104 -123v-141c0 -73 24 -105 98 -105h13v-75h-13c-117 0 -180 62 -180 186v114c0 74 -52 101 -110 101z" />
    <glyph glyph-name="braceright.case" horiz-adv-x="353" 
d="M308 397v-86c-58 0 -110 -27 -110 -101v-114c0 -124 -63 -186 -180 -186h-13v75h13c74 0 98 32 98 105v141c0 67 40 111 104 123c-64 12 -104 56 -104 123v143c0 73 -24 105 -98 105h-13v75h13c117 0 180 -62 180 -186v-116c0 -74 52 -101 110 -101z" />
    <glyph glyph-name="exclamdown.case" horiz-adv-x="311" 
d="M189 505l25 -505h-118l26 505h67zM90 647c0 36 29 66 65 66s66 -30 66 -66s-30 -65 -66 -65s-65 29 -65 65z" />
    <glyph glyph-name="guillemotleft.case" horiz-adv-x="471" 
d="M256 149h-93l-133 191l133 191h93l-131 -191zM451 149h-93l-133 191l133 191h93l-131 -191z" />
    <glyph glyph-name="uni00AD.case" horiz-adv-x="361" 
d="M316 313h-271v82h271v-82z" />
    <glyph glyph-name="guillemotright.case" horiz-adv-x="471" 
d="M308 149h-93l131 191l-131 191h93l133 -191zM113 149h-93l131 191l-131 191h93l133 -191z" />
    <glyph glyph-name="questiondown.case" horiz-adv-x="510" 
d="M226 508h88c1 -12 1 -22 1 -35c0 -66 -24 -116 -83 -156l-44 -30c-34 -23 -53 -59 -53 -98c0 -59 39 -114 119 -114c87 0 125 65 125 128c0 17 -3 38 -7 49l97 -12c4 -14 6 -30 6 -48c0 -92 -67 -205 -221 -205c-140 0 -219 99 -219 201c0 80 44 135 102 174l46 31
c31 21 44 57 44 96c0 6 0 12 -1 19zM335 650c0 -36 -29 -66 -65 -66s-66 30 -66 66s30 65 66 65s65 -29 65 -65z" />
    <glyph glyph-name="endash.case" horiz-adv-x="622" 
d="M567 296h-512v82h512v-82z" />
    <glyph glyph-name="emdash.case" horiz-adv-x="1083" 
d="M1018 296h-953v82h953v-82z" />
    <glyph glyph-name="guilsinglleft.case" horiz-adv-x="276" 
d="M256 149h-93l-133 191l133 191h93l-131 -191z" />
    <glyph glyph-name="guilsinglright.case" horiz-adv-x="276" 
d="M113 149h-93l131 191l-131 191h93l133 -191z" />
    <glyph glyph-name="G.ss01" horiz-adv-x="767" 
d="M401 -15c-178 0 -356 133 -356 370s178 369 356 369c158 0 279 -88 315 -225l-91 -31c-30 109 -110 166 -224 166c-132 0 -256 -91 -256 -279s124 -281 256 -281s213 80 226 177h-286v88h385c1 -8 1 -17 1 -25c0 -180 -111 -329 -326 -329z" />
    <glyph glyph-name="a.ss02" horiz-adv-x="583" 
d="M136 244c0 -99 51 -174 141 -174c86 0 139 75 139 174s-52 167 -138 167s-142 -68 -142 -167zM417 65v8c-23 -46 -74 -86 -149 -86c-141 0 -228 114 -228 257c0 136 92 250 228 250c85 0 131 -42 147 -81v68h93v-392c0 -43 4 -80 5 -89h-91c-2 11 -5 36 -5 65z" />
    <glyph glyph-name="agrave.ss02" horiz-adv-x="583" 
d="M136 244c0 -99 51 -174 141 -174c86 0 139 75 139 174s-52 167 -138 167s-142 -68 -142 -167zM417 65v8c-23 -46 -74 -86 -149 -86c-141 0 -228 114 -228 257c0 136 92 250 228 250c85 0 131 -42 147 -81v68h93v-392c0 -43 4 -80 5 -89h-91c-2 11 -5 36 -5 65zM238 543
l-126 146h118l86 -146h-78z" />
    <glyph glyph-name="aacute.ss02" horiz-adv-x="583" 
d="M136 244c0 -99 51 -174 141 -174c86 0 139 75 139 174s-52 167 -138 167s-142 -68 -142 -167zM417 65v8c-23 -46 -74 -86 -149 -86c-141 0 -228 114 -228 257c0 136 92 250 228 250c85 0 131 -42 147 -81v68h93v-392c0 -43 4 -80 5 -89h-91c-2 11 -5 36 -5 65zM418 689
l-126 -146h-79l87 146h118z" />
    <glyph glyph-name="acircumflex.ss02" horiz-adv-x="583" 
d="M136 244c0 -99 51 -174 141 -174c86 0 139 75 139 174s-52 167 -138 167s-142 -68 -142 -167zM417 65v8c-23 -46 -74 -86 -149 -86c-141 0 -228 114 -228 257c0 136 92 250 228 250c85 0 131 -42 147 -81v68h93v-392c0 -43 4 -80 5 -89h-91c-2 11 -5 36 -5 65zM214 545
h-87l104 139h107l104 -139h-88l-70 81z" />
    <glyph glyph-name="atilde.ss02" horiz-adv-x="583" 
d="M136 244c0 -99 51 -174 141 -174c86 0 139 75 139 174s-52 167 -138 167s-142 -68 -142 -167zM417 65v8c-23 -46 -74 -86 -149 -86c-141 0 -228 114 -228 257c0 136 92 250 228 250c85 0 131 -42 147 -81v68h93v-392c0 -43 4 -80 5 -89h-91c-2 11 -5 36 -5 65zM436 677
v-15c0 -74 -42 -109 -97 -109c-26 0 -47 10 -66 22l-14 9c-13 8 -24 14 -37 14c-19 0 -29 -10 -29 -43h-72v15c0 74 43 109 98 109c27 0 48 -10 67 -22l14 -9c13 -8 23 -14 36 -14c20 0 29 11 29 43h71z" />
    <glyph glyph-name="adieresis.ss02" horiz-adv-x="583" 
d="M136 244c0 -99 51 -174 141 -174c86 0 139 75 139 174s-52 167 -138 167s-142 -68 -142 -167zM417 65v8c-23 -46 -74 -86 -149 -86c-141 0 -228 114 -228 257c0 136 92 250 228 250c85 0 131 -42 147 -81v68h93v-392c0 -43 4 -80 5 -89h-91c-2 11 -5 36 -5 65zM130 621
c0 32 25 58 57 58c33 0 59 -26 59 -58c0 -33 -26 -58 -59 -58c-32 0 -57 25 -57 58zM317 621c0 32 25 58 58 58c32 0 58 -26 58 -58c0 -33 -26 -58 -58 -58c-33 0 -58 25 -58 58z" />
    <glyph glyph-name="aring.ss02" horiz-adv-x="583" 
d="M136 244c0 -99 51 -174 141 -174c86 0 139 75 139 174s-52 167 -138 167s-142 -68 -142 -167zM417 65v8c-23 -46 -74 -86 -149 -86c-141 0 -228 114 -228 257c0 136 92 250 228 250c85 0 131 -42 147 -81v68h93v-392c0 -43 4 -80 5 -89h-91c-2 11 -5 36 -5 65zM386 641
c0 -61 -51 -109 -112 -109c-59 0 -111 48 -111 109c0 62 52 110 111 110c61 0 112 -48 112 -110zM322 641c0 27 -21 49 -49 49c-27 0 -47 -22 -47 -49s20 -48 47 -48c28 0 49 21 49 48z" />
    <glyph glyph-name="r.ss03" horiz-adv-x="330" 
d="M174 481v-481h-94v481h94zM175 415c0 40 31 71 71 71c39 0 70 -31 70 -71c0 -39 -31 -70 -70 -70c-40 0 -71 31 -71 70z" />
    <glyph glyph-name="ampersand.ss04" horiz-adv-x="677" 
d="M387 243v89h275v-89h-86v-10c0 -135 -90 -248 -255 -248c-154 0 -256 87 -256 209c0 104 71 170 146 192c-62 22 -111 74 -111 155c0 102 89 183 208 183c152 0 213 -95 220 -193l-96 -17c-5 76 -45 122 -123 122c-59 0 -109 -41 -109 -100c0 -70 62 -103 108 -103h13
v-90c-66 0 -156 -34 -156 -141c0 -64 52 -127 157 -127c97 0 155 61 155 158v10h-90z" />
    <glyph glyph-name="one.ss05" horiz-adv-x="465" 
d="M45 88h163v369h-157v69c90 2 152 52 167 122h86v-560h156v-88h-415v88z" />
    <glyph glyph-name="registered.ss06" horiz-adv-x="429" 
d="M25 526c0 104 85 189 189 189s190 -85 190 -189s-86 -189 -190 -189s-189 85 -189 189zM74 526c0 -80 61 -143 140 -143s141 63 141 143s-62 143 -141 143s-140 -63 -140 -143zM197 537h20c15 0 26 9 26 24c0 14 -11 22 -26 22h-20v-46zM242 430l-30 65h-15v-65h-52v196
h83c38 0 68 -30 68 -65c0 -25 -15 -45 -36 -56l36 -75h-54z" />
    <glyph glyph-name="caron.alt" horiz-adv-x="203" 
d="M168 709l-64 -179h-69l28 179h105z" />
    <glyph glyph-name="commaaccent" horiz-adv-x="194" 
d="M35 659c0 32 28 52 59 52c30 0 65 -19 65 -73c0 -77 -60 -112 -114 -112v40c34 0 63 24 65 48c-1 -1 -8 -6 -21 -6c-31 0 -54 17 -54 51z" />
    <glyph glyph-name="commaturn" horiz-adv-x="172" 
d="M149 586c0 -32 -26 -52 -59 -52c-28 0 -65 20 -65 73c0 72 60 112 114 112v-40c-34 0 -63 -24 -65 -48c1 1 9 6 21 6c32 0 54 -19 54 -51z" />
    <glyph glyph-name="dieresis.narrow" horiz-adv-x="294" 
d="M23 621c0 30 23 54 53 54s54 -24 54 -54s-24 -53 -54 -53s-53 23 -53 53zM164 621c0 30 23 54 53 54s54 -24 54 -54s-24 -53 -54 -53s-53 23 -53 53z" />
    <glyph glyph-name="dieresis.uc.narrow" horiz-adv-x="310" 
d="M25 819c0 30 23 53 53 53s54 -23 54 -53s-24 -54 -54 -54s-53 24 -53 54zM178 819c0 30 24 53 54 53s53 -23 53 -53s-23 -54 -53 -54s-54 24 -54 54z" />
    <glyph glyph-name="grave.uc" horiz-adv-x="273" 
d="M156 759l-138 119h129l102 -119h-93z" />
    <glyph glyph-name="dieresis.uc" horiz-adv-x="407" 
d="M29 819c0 33 26 59 59 59s59 -26 59 -59s-26 -59 -59 -59s-59 26 -59 59zM260 819c0 33 26 59 59 59s59 -26 59 -59s-26 -59 -59 -59s-59 26 -59 59z" />
    <glyph glyph-name="macron.uc" horiz-adv-x="343" 
d="M318 779h-293v83h293v-83z" />
    <glyph glyph-name="acute.uc" horiz-adv-x="273" 
d="M255 878l-137 -119h-94l101 119h130z" />
    <glyph glyph-name="circumflex.uc" horiz-adv-x="403" 
d="M120 759h-91l112 119h120l117 -119h-92l-85 64z" />
    <glyph glyph-name="caron.uc" horiz-adv-x="403" 
d="M29 878h91l81 -64l85 64h92l-117 -119h-120z" />
    <glyph glyph-name="breve.uc" horiz-adv-x="371" 
d="M186 754c-101 0 -153 65 -157 129h81c2 -23 22 -56 76 -56s73 33 75 56h81c-4 -64 -55 -129 -156 -129z" />
    <glyph glyph-name="dotaccent.uc" horiz-adv-x="177" 
d="M25 818c0 35 29 64 63 64c35 0 64 -29 64 -64c0 -34 -29 -63 -64 -63c-34 0 -63 29 -63 63z" />
    <glyph glyph-name="ring.uc" horiz-adv-x="273" 
d="M248 848c0 -61 -51 -109 -112 -109c-59 0 -111 48 -111 109c0 62 52 110 111 110c61 0 112 -48 112 -110zM183 848c0 26 -21 47 -48 47c-26 0 -46 -21 -46 -47s20 -46 46 -46c27 0 48 20 48 46z" />
    <glyph glyph-name="tilde.uc" horiz-adv-x="373" 
d="M349 881v-16c0 -74 -41 -111 -96 -111c-29 0 -51 9 -71 23l-15 10c-13 8 -24 14 -37 14c-21 0 -35 -13 -35 -44h-68v16c0 74 42 111 97 111c28 0 53 -11 73 -23l15 -9c14 -8 25 -14 38 -14c17 0 32 9 32 35v8h67z" />
    <glyph glyph-name="hungarumlaut.uc" horiz-adv-x="367" 
d="M191 878l-96 -119h-70l61 119h105zM342 878l-106 -119h-70l71 119h105z" />
    <glyph glyph-name="caron.alt.uc" horiz-adv-x="203" 
d="M176 709l-68 -190h-73l30 190h111z" />
    <glyph glyph-name="undercommaaccent" horiz-adv-x="174" 
d="M25 -88c0 30 28 52 59 52c29 0 65 -19 65 -73c0 -77 -60 -112 -114 -112v40c34 0 63 24 65 48c-3 -2 -12 -6 -21 -6c-31 0 -54 17 -54 51z" />
    </font>
</defs>
</svg>
